This file was generated by Ched 2.6.4.0.
#TITLE ""
#ARTIST ""
#DESIGNER ""
#DIFFICULTY 0
#PLAYLEVEL
#SONGID ""
#WAVE ""
#WAVEOFFSET 0
#JACKET ""
#REQUEST "ticks_per_beat 480"
#00002: 4
#BPM01: 140
#00008: 01
#TIL00: ""
#HISPEED 00
#MEASUREHS 00
#0001a:14141400
#00112:14141400
#00218:14141400
#00314:14141400
#0041a:1414
#00414:00140000
#00410:41
#00514:1414
#0051a:00140000
#00618:1414
#00612:00140000
#00712:1414
#00718:00140000
#03612:14
#03618:14
#03614:00140000
#0361a:00140000
#03613:00000000000000000036363600000000
#03712:00160000
#03718:26001414
#03714:0000000000140000
#0371f:21
#03812:16
#03818:0000160000140000
#03814:00001414
#03810:41
#03918:16001414
#03912:00160000
#03914:0000000000140014
#04018:1400000000000014
#0511a:14
#05114:00140000
#05118:0014
#05112:00000014
#05110:41
#05218:14
#05214:00140000
#0521a:0014
#05312:14
#05318:00140000
#05314:0014
#0531a:00000014
#05414:14
#05418:00140000
#05412:0014
#0551a:1414
#05514:00140014
#05618:1414
#05612:00140014
#0571a:14
#05714:00140000
#05718:0014
#05712:00000014
#0581a:14
#05814:00140000
#05818:0014
#05812:00000014
#0281a:14
#0281f:11
#02912:14
#03018:14
#0081a:14
#00814:00140000
#00818:0014
#00912:14
#00918:00140000
#00914:0014
#01018:14
#01014:00140000
#0101a:0014
#01114:14
#01118:00140000
#01112:0014
#03114:14
#0321a:14
#03218:00140000
#03312:14
#03314:00140000
#03418:14
#0341a:00140000
#04518:0000160000140000
#04512:2614
#04514:00000014
#04618:16000014
#04612:00160000
#0461a:0014
#04614:0000000000140000
#04712:16
#04718:0000160000140014
#04714:00001414
#04814:14
#04818:0000000000000014
#04914:14
#04918:0000001400000000
#0491a:0000000000343434
#0121a:00140014
#01214:0014
#01210:41
#01312:00140014
#01318:0014
#01418:00140014
#01412:0014
#01514:1414
#0151a:00140014
#01614:00140000
#01618:0014
#01612:00000014
#01718:00140000
#01714:0014
#0171a:00000014
#01812:00140014
#01818:0014
#0191a:1414
#01914:00140014
#0201a:00140000
#02014:0014
#02018:00000014
#02010:41
#02112:00140000
#02118:0014
#02114:00000014
#0221a:00140000
#02214:0014
#02218:00000014
#02312:14
#02318:00140000
#02314:0014
#0231a:00000014
#02412:00140000
#0241a:0014
#02416:00000014
#0251a:00140000
#02512:0014
#02516:00000014
#02612:00140000
#02618:0014
#02614:00000014
#0271a:14
#02714:00140000
#02718:0014
#02712:00000014
#02710:41
#04114:1400000000000014
#04113:00000034000000000000000000000000
#04112:0000003400000000
#04218:14
#04214:0000000000000014
#04219:00000034000000000000000000000000
#0421a:0000003400000000
#04318:14140000
#04314:0014000000000000
#04312:0000001400000000
#0431a:0000000000000014
#04316:0000000000140000
#03512:24
#03518:00240000
#03514:0024
#0351a:00000024
#04412:26
#04414:00260000
#04416:0026
#04418:00000026
#0405a:0014
#04058:54
#03058:54
#0285a:64
#02952:54
#03154:64
#03354:00240000
#03352:54
#0345a:00240000
#03458:54
#03258:00240000
#0325a:64
#04854:64
#04852:0014
#04958:0000005400000000
#0505a:14
#04154:64
#04258:54
#0283a0:14
#028380:0024
#029320:14
#029340:0024
#030380:14
#0303a0:0024
#031340:14
#031320:0024
#0323a0:1424
#032380:00540000
#033320:1424
#033340:00540000
#034380:1424
#0343a0:00540000
#036320:0016
#036330:00000000000000000036363600000000
#036340:00000026
#040380:14
#0403a0:0024
#041340:14
#041330:00000034000000000000000000000000
#041320:0000003400240000
#042380:14
#042390:00000034000000000000000000000000
#0423a0:0000003400240000
#048340:14
#048320:0024
#049380:0000001400000000
#0493a0:0000000000343434
#0503a0:24
#0593b0:13000033000000002300000000000000
#060350:13000033000033002300000000000000
#061380:13000033000000002300000000000000
#062320:13000033000033003300003300000000
#063320:23
