This file was generated by Ched 2.6.2.0.
#TITLE ""
#ARTIST ""
#DESIGNER ""
#DIFFICULTY 0
#PLAYLEVEL
#SONGID ""
#WAVE ""
#WAVEOFFSET 0
#JACKET ""
#REQUEST "ticks_per_beat 480"
#00002: 4
#BPM01: 176
#00008: 01
#TIL00: ""
#HISPEED 00
#MEASUREHS 00
#0001a:14
#00112:14
#0021a:14
#00312:14
#00519:14
#00613:14
#01619:14
#01619:14
#01713:14
#02019:00140000
#02013:00000014
#02010:41
#02119:00140000
#02113:00000014
#02219:00140000
#02213:00000014
#02419:14
#02513:14
#02813:14
#02810:41
#02919:14
#03619:14
#03713:14
#05718:16
#05712:0016
#05818:16
#05812:0016
#05810:41
#06813:14
#06919:14
#00719:14
#00913:14
#01019:14
#01113:14
#03219:14
#03319:14
#03413:14
#03513:14
#03819:14
#03913:14
#04019:14
#04010:41
#04113:14
#04413:14
#04519:14
#05219:14
#05313:14
#04819:14
#0481f:11
#04919:14
#05013:14
#05113:14
#05419:14
#05513:14
#05918:16
#05912:0016
#06112:16
#06118:0016
#06212:16
#06218:0016
#06312:16
#06318:0016
#00419:00240000
#00410:00410000
#01913:00000024
#05618:00260000
#0561f:00210000
#07119:00000024
#07113:00000024
#00813:00240000
#06012:00260000
#01210:41
#012390:14
#013390:24
#014330:14
#015330:24
#018390:14
#019390:24
#026390:14
#027390:24
#030330:14
#031330:24
#042390:14
#043390:24
#046330:14
#047330:24
#064330:14
#065330:24
#066390:14
#067390:24
#070330:14
#071330:24
