This file was generated by Ched 2.6.2.0.
#TITLE ""
#ARTIST ""
#DESIGNER ""
#DIFFICULTY 0
#PLAYLEVEL
#SONGID ""
#WAVE ""
#WAVEOFFSET 0
#JACKET ""
#REQUEST "ticks_per_beat 480"
#00002: 4
#BPM01: 176
#00008: 01
#TIL00: ""
#HISPEED 00
#MEASUREHS 00
#00018:0000000000130000
#00015:00000013
#0001b:00330000
#00014:00330000
#00115:0000000000130000
#00118:00000013
#00114:1333330000000000
#00117:1333330000000000
#00119:00000013000000000000000000000000
#00112:00000013000000000000000000000000
#00218:0000000000001300361600000000000000000000130000000000000000000000
#00215:00000013
#0021a:0033000000000000
#0041b:0000000000130000
#00415:00000013
#00418:0000000000000013
#00412:13260000
#00410:00410000
#00512:1313001300000000
#00518:0013000000000000
#0051b:00130000
#00516:00000000000000000013000000000000
#00517:00000013
#0061b:1313
#00618:0013000000001300
#00615:0000130000130000
#00612:1313
#0071b:1300001300000013
#00719:00000013
#00716:0000001300000013
#00714:00000013
#00712:0013000000000000
#01018:13131313
#0101b:0000001300000000
#01015:0013001300130000
#01012:13000013
#01117:1300000000130000
#0111b:0013000000000000
#01119:0000001300000000
#01112:1300000000130000
#01116:0013000000000000
#01114:0000001300000000
#01212:13
#01217:23000013
#0121b:0000001300000000
#01216:0000001300000000
#01210:41
#01316:13
#01317:0000001300000000
#0131b:00000013
#01312:0000001300000000
#01412:13
#01416:0000001300000000
#01417:00000013
#0141b:0000001300000000
#01516:1300000000000013
#01517:0013000000000000
#0151b:0000000000000013
#01512:0013160000000000
#01515:0016
#01518:00000016
#01617:00130000
#01618:0000000000130000
#01615:00000013
#0161b:0000000000000013
#01612:0000000013000013
#01718:0013000000130000
#0171b:0013
#01715:00000013
#01712:0013000000000013
#01716:00000000001300000000000000000000
#0191b:0013001300000000
#01918:00130000
#01912:13130024
#01915:0013001300000000
#0191a:00000024
#01818:0000001600002600
#01812:26
#01814:0022
#0181a:00220000
#02015:1300000000130013
#02018:0013001300000000
#0201b:00130000
#02012:00140013
#0201a:00000014
#02010:41
#0211b:0013000000000000
#02118:13130000
#02112:00140000
#0211a:00000014
#02215:1300000000130000
#02218:0013001300000000
#0221b:00130000
#02212:00140013
#0221a:00000014
#0231b:0000001300001300
#02318:1313000000000013
#02312:1313000000000000
#02315:0000001300000000
#02418:0000131300000000
#0241b:0000000013001313
#0251b:0000130000000013
#02518:13
#02515:0000001300000000
#02717:1313001300000000
#02712:1313001300001300
#02715:0000000000000013
#03219:00130000
#03217:0013
#0321b:2300000000001313
#03212:1400001414001400
#0331b:00000013
#03312:1400001414001400
#03317:0013
#03417:13
#03419:00130000
#0341b:0013
#03418:0000000000001313
#03412:1400001414001400
#0351b:0013001313000000
#03512:1400001414001400
#0361b:13231300
#03618:0013001300002300
#03615:0000130000130013
#03612:23002313
#03718:0013001300002300
#03715:0000130000130013
#03712:23002313
#0371b:13231300
#0381a:14
#03814:0014000000140000
#03818:0000001400000014
#03812:2314
#03816:00000014
#03915:2400000000000013
#03912:00000013
#0391a:24
#04212:14
#04214:00140000
#04216:0014
#04218:00000014
#0431b:1313001300001300
#04316:1313001300000000
#04318:0000000000000013
#04717:1313001300000000
#04712:1313001300000000
#05519:00000000000000001300001300130013
#05518:0000001300001300
#0551a:1400000000130013
#05513:00000000000000001300001300130013
#05512:1400001300001300
#05514:0000000000130013
#07018:0000001600002600
#07014:0022
#0701a:00220000
#07012:26
#0711b:0013001300000000
#07118:00130000
#07112:13130025
#07115:0013001300000000
#07119:00000025
#0031b:0000000000000000000000001300000033333333333333333333333333333333
#00812:0000000000130000
#00818:00260013
#00815:0000000000000013
#0091b:1313001300000000
#00915:0013000000000000
#00912:00130000
#00917:00000000000000000013000000000000
#00916:00000013
#02815:0000131300000000
#02812:0000000013001313
#02810:41
#02912:0000130000000013
#02915:13
#02918:0000001300000000
#0301a:1414000000000000
#03014:0000141400000000
#03018:0000000014140000
#03012:0000000000001414
#03116:1313001300000000
#0311b:1313001300000000
#04015:0000001300000013
#0401b:0013
#04018:00000013
#04012:00130000
#04010:41
#04112:0000130000000013
#04115:13
#04116:0000001300000000
#04117:0000000000130000
#0411b:0000001300000000
#04418:0000001300000013
#04412:0013
#04415:00000013
#0441b:00130000
#0451b:0000130000000013
#04518:13
#04517:0000001300000000
#04516:0000000000130000
#04512:0000001300000000
#04612:00140014
#04616:1313
#0461a:1414
#04617:00130013
#04814:00130000
#04816:0013
#04812:23000013
#0481a:1400001414001400
#0481f:11
#04912:00000013
#0491a:1400001414001400
#04916:0000001313000000
#05016:1300000000001313
#05014:00130000
#05012:0013
#0501a:1400001414001400
#05112:0013001313000000
#0511a:1400001414001400
#05212:13231300
#05215:0013001300002300
#05218:0000130000130013
#0521b:23002313
#05315:0013001300002300
#05318:0000130000130013
#0531b:23002313
#05312:13231300
#05412:13
#0541b:13
#05416:00000014
#0561b:0000000000130000
#05615:00000013
#05618:0013260000000013
#05612:0013260000130000
#0561f:00210000
#05712:13001300000000000013000000000000
#0571b:1313000000001300
#05718:00130000
#05716:0000001300000000
#0581b:13
#05819:0013000000000000
#05817:00130000
#05812:0013
#05814:0000000000130000
#05816:00000013
#05810:41
#0591b:1300001300000013
#05919:00000013
#05916:1300001300000013
#05914:00000013
#05912:0013000000000000
#05917:0013000000000000
#06012:0000250000130000
#06018:00000013
#06015:0000000000000013
#0601b:0000000000130000
#06019:00250000
#0611b:13001300000000000013000000000000
#06112:1313000000001300
#06115:00130000
#06117:0000001300000000
#06212:13000013
#06215:0013000013000000
#0621b:0000001300001300
#06218:0000130000130000
#06312:13
#0631b:0013001300000000
#06317:13
#06316:0013001300000000
#0641b:13
#06416:23000013
#06412:0000001300000000
#06417:0000001300000000
#06517:13
#06516:0000001300000000
#06512:00000013
#0651b:0000001300000000
#0661b:13
#06617:0000001300000000
#06616:00000013
#06612:0000001300000000
#06717:1300000000000013
#06716:0013000000000000
#0671b:0013000000000000
#06718:00160000
#06715:0016
#06712:0000000000001613
#06816:00130000
#06815:0000000000130000
#06818:00000013
#06812:0000000000000013
#0681b:0000000013000013
#06915:0013000000130000
#06912:0013
#06918:00000013
#0691b:0013000000000013
#06917:00000000001300000000000000000000
#02614:1414140000000000
#02618:0000000014141400
#0261b:13
#02612:0013
#01858:0000002600000000
#0185a:00520000
#07058:0000002600000000
#0705a:00520000
#00058:0000000000130000
#00055:00000013
#00155:0000000000130000
#00158:00000013
#00157:53
#00154:53
#00159:00000023000000000000000000000000
#00152:00000023000000000000000000000000
#00258:0000000000005300002600000000000000000000130000000000000000000000
#00255:00000013
#00558:0053000000000000
#00552:0000005300000000
#0055b:00230000
#00556:00000000000000000023000000000000
#03252:00000014
#0035b:0000005300000000
#0075b:0000005300000000
#00756:0000005300000000
#00955:0063000000000000
#00952:00230000
#0095b:0000006300000000
#00957:00000000000000000023000000000000
#01252:53
#0125b:0000005300000000
#01256:0000005300000000
#01257:00000053
#01356:53
#01357:0000005300000000
#01352:0000005300000000
#0135b:00000053
#01452:53
#01456:0000005300000000
#0145b:0000005300000000
#01457:00000053
#01556:0000000000000053
#01657:00530000
#01752:0053000000000000
#01756:00000000002300000000000000000000
#0195a:00000044
#01952:00000034
#02052:00140000
#0205a:00000014
#02152:00140000
#0215a:00000014
#02252:00140000
#0225a:00000014
#02757:0000001300000000
#02752:0000001300000000
#03156:0000001300000000
#0315b:0000001300000000
#03352:00000014
#03452:00000014
#03552:00000014
#0355b:0063
#04252:14
#04254:00140000
#04256:0014
#04258:00000014
#0435b:0000001300000000
#04356:0000001300000000
#04752:0000001300000000
#04757:0000001300000000
#05152:0053
#0515a:00000014
#0485a:00000014
#0495a:00000014
#0505a:00000014
#05452:53
#0545b:53
#0575b:0063000000000000
#05758:00230000
#05756:0000006300000000
#05752:00000000000000000023000000000000
#0595b:0000005300000000
#05956:0000005300000000
#06152:0053000000000000
#06155:00230000
#06157:0000005300000000
#0615b:00000000000000000023000000000000
#0645b:63
#06456:00000063
#06452:0000006300000000
#06457:0000006300000000
#06557:63
#06556:0000006300000000
#06552:00000063
#0655b:0000006300000000
#0665b:63
#06657:0000006300000000
#06656:00000063
#06652:0000006300000000
#06856:00630000
#06757:0000000000000063
#0695b:0063000000000000
#06957:00000000002300000000000000000000
#07159:00000045
#07152:00000035
#05658:0023460000000000
#05652:0023460000000000
#0635b:0000005300000000
#06356:0000005300000000
#06059:00450000
#06052:00350000
#00452:00360000
#00858:00460000
#04156:0000005300000000
#04157:0000000000530000
#04557:0000005300000000
#04556:0000000000530000
#01157:0000000000130000
#01152:0000000000130000
#05558:0000002300002300
#05559:00000000000000005300005300530053
#0555a:4400000000230023
#05553:00000000000000005300005300530053
#05552:3400002300002300
#05554:0000000000230023
#02355:0000001300000000
#0235b:0000001300000000
#0395a:54
#03955:54
#0003b0:130000000000000000000000000000000000000000000000000000000000000000000000000000000000000000000000000000000000000000000000000000000000000000000000000000000000000000000000000000000000000000000000000000000000000000000000000000000000000000000000000000000000000000000000000000000000000000000000000000000000000000000000000000000000000000000000000000000000000000000000000000000000000000000000000000000000000000000000000000000000000000000000000000000000000000000000000000000000000000000000330000000000000000000000000000000000000000000000000000000000000000000000000000000000000000000000000000000000000000000000000000000000000000000000000000000000000000000000000000000000000000000000000000000000000000000000000000000000000000000053000000000000000000000000000000000000000000000000000000000000000000000000000000000000000000000000000000000000000000000000000000000000000000000000000000000000000000000000000000000000000000000000000000000000000000000000000000000000000000000000330000000000000000000000000000000000000000000000000000000000000000000000000000000000000000000000000000000000000000000000000000000000000000000000000000000000000000000000000000000000000000000000000000000000000000000000000000000000000000000000000000000000000000000000000000000000000000000000000000000000000000000000000000000000000000000000000000000000000000000000000000000000000000000000000000000000000000000000000000000000000000000000000000000000000000000000000000000000000000000000230000000000000000000000000000000000000000000000000000000000000000000000000000000000000000000000000000000000000000000000000000000000000000000000000000000000000000000000000000000000000000000000000000000000000000000000000000000000000000000000000000000000000000000000000000000000000000000000000000000000000000000000000000000000000000000000000000000000000000000000000000000000000000000000000000000000000000000000000000000000000000000000000000000000000000000000000000000000000000000000000000000000000000000000000000000000000000000000000000000000000000000000000000000000000000000000000000000000000000000000000000000000000000000000000000000000000000000000000000000000000000000000000000000000000000000000000000000000000000000000000000000000000000000000000000000000000000000000000000000000000000000000000000000000000000000000000000000000000000000000000000000000000000000000000000000000000000000000000000000000000000000000000000000000000000000000000000000000000000000000000000000000000000000000000000000000000000000000000000000000000000000000000000000000000000000000000000000000000000000000000000000000000000000000000000000000000000000000000000000000000000000000000000000000000000000000000000000000000000000000000000000000000000000000000000000000000000000000000000000000000000000000000000000000000000000000000000000000000000000000000000000000000000000000000000000000000000000000000000000000000000000000000000000000000000000000000000000000000000000000000000000000000000000000000000000000000000000000000000000000000000000000000000000000000000000000000000000000000000000000000000000000000000000000000000000000000000000000000000000000000000000000000000000000000000000000000000000000000000000000000000000000000000000000000000000000000000000000000000000000000000000000000000000000000000000000000000000000000000000000000000000000000000000000000000000000000000000000000000000000000000000000000000000000000000000000000000000000000000000000000000000000000000000000000000000000000000000000000000000000000000000000000000000000000000000000000000000000000000000000000000000000000000000000000000000000000000000000000000000000000000000000000000000000000000000000000000000000000000000000000000000000000000000000000000000000000000000000000000000000000000000000000000000000000000000000000000000000000000000000000000000000000000000000000000000000000000000000000000000000000000000000000000000000000000000000000000000000000000000000
#000390:00000055000000000000000000000000
#000341:130000000000000000000000000000000000000000000000000000000000000000000000000000000000000000000000000000000000000000000000000000000000000000000000000000000000000000000000000000000000000000000000000000000000000000000000000000000000000000000000000000000000000000000000000000000000000000000000000000000000000000000000000000000000000000000000000000000000000000000000000000000000000000000000000000000000000000000000000000000000000000000000000000000000000000000000000000000000000000000000330000000000000000000000000000000000000000000000000000000000000000000000000000000000000000000000000000000000000000000000000000000000000000000000000000000000000000000000000000000000000000000000000000000000000000000000000000000000000000000053550000000000000000000000000000000000000000000000000000000000000000000000000000000000000000000000000000000000000000000000000000000000000000000000000000000000000000000000000000000000000000000000000000000000000000000000000000000000000000000000330000000000000000000000000000000000000000000000000000000000000000000000000000000000000000000000000000000000000000000000000000000000000000000000000000000000000000000000000000000000000000000000000000000000000000000000000000000000000000000000000000000000000000000000000000000000000000000000000000000000000000000000000000000000000000000000000000000000000000000000000000000000000000000000000000000000000000000000000000000000000000000000000000000000000000000000000000000000000000000000230000000000000000000000000000000000000000000000000000000000000000000000000000000000000000000000000000000000000000000000000000000000000000000000000000000000000000000000000000000000000000000000000000000000000000000000000000000000000000000000000000000000000000000000000000000000000000000000000000000000000000000000000000000000000000000000000000000000000000000000000000000000000000000000000000000000000000000000000000000000000000000000000000000000000000000000000000000000000000000000000000000000000000000000000000000000000000000000000000000000000000000000000000000000000000000000000000000000000000000000000000000000000000000000000000000000000000000000000000000000000000000000000000000000000000000000000000000000000000000000000000000000000000000000000000000000000000000000000000000000000000000000000000000000000000000000000000000000000000000000000000000000000000000000000000000000000000000000000000000000000000000000000000000000000000000000000000000000000000000000000000000000000000000000000000000000000000000000000000000000000000000000000000000000000000000000000000000000000000000000000000000000000000000000000000000000000000000000000000000000000000000000000000000000000000000000000000000000000000000000000000000000000000000000000000000000000000000000000000000000000000000000000000000000000000000000000000000000000000000000000000000000000000000000000000000000000000000000000000000000000000000000000000000000000000000000000000000000000000000000000000000000000000000000000000000000000000000000000000000000000000000000000000000000000000000000000000000000000000000000000000000000000000000000000000000000000000000000000000000000000000000000000000000000000000000000000000000000000000000000000000000000000000000000000000000000000000000000000000000000000000000000000000000000000000000000000000000000000000000000000000000000000000000000000000000000000000000000000000000000000000000000000000000000000000000000000000000000000000000000000000000000000000000000000000000000000000000000000000000000000000000000000000000000000000000000000000000000000000000000000000000000000000000000000000000000000000000000000000000000000000000000000000000000000000000000000000000000000000000000000000000000000000000000000000000000000000000000000000000000000000000000000000000000000000000000000000000000000000000000000000000000000000000000000000000000000000000000000000000000000000000000000000000000000000000000000000000000000000000000
#001341:1333332300000000
#001321:00000053000000000000000000000000
#001370:1333332300000000
#001390:00000053000000000000000000000000
#002350:1333332300000000
#0023b1:13
#0023a1:0033000000000000
#002381:0000000000005300365600002400000000000000000000000000000000000000
#003321:170000000000000000000000000000000000000000000000000000000000000000000000000000000000000000000000000000000000000000000000000000000000000000000000000000000000000000000000000000000000000000000000000000000000000000000000000000000000000000000000575300000000000000000000000000000000000000000000000000000000000000000000000000000000000000000000000000000000000000000000000000000000000000000000000000000000000000000000000000000000000000000000000000000000000000000000000000000000000000000000330000000000000000000000000000000000000000000000000000000000000000000000000000000000000000000000000000000000000000000053570000000000000000000000000000000000000000000000000000000000000000000000000000000000000000000000000000000000000000000000000000000000000000000000000000000000000000000000000000000000000000000000000000000000000000000000000000000000000000000000575300000000000000000000000000000000000000000000000000000000000000000000000000000000000000000000000000000000000000000000330000000000000000000000000000000000000000000000000000000000000000000000000000000000000000000000000000000000000000000000000000000000000000000000000000000000000000000000000000000000000000000000000000000000000000000000000000000000000000000053570000000000000000000000000000000000000000000000000000000000000000000000000000000000000000000000000000000000000000000000000000000000000000000000000000000000000000000000000000000000000000000000000000000000000000000000000000000000000000000000270000000000000000000000000000000000000000000000000000000000000000000000000000000000000000000000000000000000000000000000000000000000000000000000000000000000000000000000000000000000000000000000000000000000000000000000000000000000000000000000000000000000000000000000000000000000000000000000000000000000000000000000000000000000000000000000000000000000000000000000000000000000000000000000000000000000000000000000000000000000000000000000000000000000000000000000000000000000000000000000000000000000000000000000000000000000000000000000000000000000000000000000000000000000000000000000000000000000000000000000000000000000000000000000000000000000000000000000000000000000000000000000000000000000000000000000000000000000000000000000000000000000000000000000000000000000000000000000000000000000000000000000000000000000000000000000000000000000000000000000000000000000000000000000000000000000000000000000000000000000000000000000000000000000000000000000000000000000000000000000000000000000000000000000000000000000000000000000000000000000000000000000000000000000000000000000000000000000000000000000000000000000000000000000000000000000000000000000000000000000000000000000000000000000000000000000000000000000000000000000000000000000000000000000000000000000000000000000000000000000000000000000000000000000000000000000000000000000000000000000000000000000000000000000000000000000000000000000000000000000000000000000000000000000000000000000000000000000000000000000000000000000000000000000000000000000000000000000000000000000000000000000000000000000000000000000000000000000000000000000000000000000000000000000000000000000000000000000000000000000000000000000000000000000000000000000000000000000000000000000000000000000000000000000000000000000000000000000000000000000000000000000000000000000000000000000000000000000000000000000000000000000000000000000000000000000000000000000000000000000000000000000000000000000000000000000000000000000000000000000000000000000000000000000000000000000000000000000000000000000000000000000000000000000000000000000000000000000000000000000000000000000000000000000000000000000000000000000000000000000000000000000000000000000000000000000000000000000000000000000000000000000000000000000000000000000000000000000000000000000000000000000000000000000000000000000000000000000000000000000000000000000000000000000000000000000000000000000000000000000000000000000000000000000000000000000000000000000000000000000
#0033b0:0000000000000000000000001300000033333333333333333333333333333333
#004370:23
#005380:0013002300000000
#0053b0:00530000
#005321:0000001300002300
#005361:00000000000000000053000000000000
#0073b1:0000001300000000
#007371:0000000000230000
#007360:0000001300000000
#007320:0000000000230000
#009350:0013002300000000
#009320:00530000
#0093b1:0000001300002300
#009371:00000000000000000053000000000000
#012321:13000023
#012361:0000005300000000
#0123b0:0000001300000000
#012370:00000053
#0133b0:23
#013361:13000023
#013321:0000005300000000
#013370:0000001300000000
#0133b0:00000053
#014370:23
#014321:13000023
#014361:0000005300000000
#0143b0:0000001300000000
#014370:00000053
#0153b0:23
#015360:0000000000000013
#016320:00230000
#016371:00130000
#0163b1:0023
#017321:0013000023000000
#017361:00000000005300000000000000000000
#018321:160000000000000000000000000000000000000000000000000000000000000000000000000000000000000000000000000000000000000000000000000000000000000000000000000000000000000000000000000000000000000000000000000000000000000000000000000000000000000000000000565300000000000000000000000000000000000000000000000000000000000000000000000000000000000000000000000000000000000000000000000000000000000000000000000000000000000000000000000000000000000000000000000000000000000000000000000000000000000000000000000000000000000000000000000000000000000000000000000000000000000000000000000000000000000000000000000000000000000000000000000000000000000000000000000000000000000000000000000000000000000000000000000000000000000000000000000000000000000000000000000000000000000000000000000000000000000000000000000000000000000000000000000000000000000000000000000000000000000000000000000000000000000000000000000000000000000000000000000000000000000000000000000000000000000000000000000000000000000000000000230000000000000000000000000000000000000000000000000000000000000000000000000000000000000000000000000000000000000000000000000000000000000000000000000000000000000000000000000000000000000000000000000000000000000000000000000000000000000000000000000000000000000000000000000000000000000000000000000000000000000000000000000000000000000000000000000000000000000000000000000000000000000000000000000000000000000000000000000000000000000000000000000000000000000000000000000000000000000000000000000000000000000000000000000000000000000000000000000000000000000000000000000000000000000000000000000000000000000000000000000000000000000000000000000000000000000000000000000000000000000000000000000000000000000000000000000000000000000000000000000000000000000000000000000000000000000000000000000000000000000000000000000000000000000000000000000000000000000000000000000000000000000000000000000000000000000000000000000000000000000000000000000000000000000000000000000000000000000000000000000000000000000000000000000000000000000000000000000000000000000000000000000000000000000000000000000000000000000000000000000000000000000000000000000000000000000000000000000000000000000000000000000000000000000000000000000000000000000000000000000000000000000000000000000000000000000000000000000000000000000000000000000000000000000000000000000000000000000000000000000000000000000000000000000000000000000000000000000000000000000000000000000000000000000000000000000000000000000000000000000000000000000000000000000000000000000000000000000000000000000000000000000000000000000000000000000000000000000000000000000000000000000000000000000000000000000000000000000000000000000000000000000000000000000000000000000000000000000000000000000000000000000000000000000000000000000000000000000000000000000000000000000000000000000000000000000000000000000000000000000000000000000000000000000000000000000000000000000000000000000000000000000000000000000000000000000000000000000000000000000000000000000000000000000000000000000000000000000000000000000000000000000000000000000000000000000000000000000000000000000000000000000000000000000000000000000000000000000000000000000000000000000000000000000000000000000000000000000000000000000000000000000000000000000000000000000000000000000000000000000000000000000000000000000000000000000000000000000000000000000000000000000000000000000000000000000000000000000000000000000000000000000000000000000000000000000000000000000000000000000000000000000000000000000000000000000000000000000000000000000000000000000000000000000000000000000000000000000000000000000000000000000000000000000000000000000000000000000000000000000000000000000000000000000000000000000000000000000000000000000000000000000000000000000000000000000000000000000000000000000000000000000000000000000000000000000000000000000000000000000000000000000000000000000000000000000000000000000000000000000000000000000000000000000000000000000000000000000000000000
#0183a0:00122200
#018380:0000005600000000
#018341:0012
#018321:00000026
#018380:000000000000000000000000000000000000000000000000000000000000000000000000000000000000000000000000000000000000000000000000000000000000000000000000000000000000000000000000000000000000000000000000000000000000000000000000000000000000000000000000000000000000000000000000000000000000000000000000000000000000000000000000000000000000000000000000000000000000000000000000000000000000000000000000000000000000000000000000000000000000000000000000000000000000000000000000000000000000000000000000000000000000000000000000000000000000000000000000000000000000000000000000000000000000000000000000000000000000000000000000000000000000000000000000000000000000000000000000000000000000000000000000000000000000000000000000000000000000000000000000000000000000000000000000000000000000000000000000000000000000000000000000000000000000000000000000000000000000000000000000000000000000000000000000000000000000000000000000000000000000000000000000000000000000000000000000000000000000000000000000000000000000000000000000000000000000000000000000000000000000000000000000000000000000000000000000000000000000000000000000000000000000000000000000000000000000000000000000000000000000000000000000000000000000000000000000000000000000000000000000000000000000000000000000000000000000000000000000000000000000000000000000000000000000000000000000000000000000000000000000000000000000000000000000000000000000000000000000000000000000000000000000000000000000000000000000000000000000000000000000000000000000000000000000000000000000000000000000000000000000000000000000000000000000000000000000000000000000000000000000000000000000000000000000000000000000000000000000000000000000000000000000000000000000000000000000000000000000000000000000000000000000000000000000000000000000000000000000000000000000000000000000000000000000000000000000000000000000000000000000000000000000000000000000000000000000000000000000000000000000000000000000000000000000000000000000000000000000000000000000000000000000000000000000000000000000000000000000000000000000000000000000000000000000000000000000000000000000000000000000000000000000000000000000000000000000000000000000000000000000000000000000000000000000000000000000000000000000000000000000000000000000000000000000000000000000000000000000000000000000000000000000000000000000000000000000000000000000000000000000000000000000000000000000000000000000000000000000000000000000000000000000000000000000000000000000000000000000000000000000000000000000000000000000000000000000000000000000000000000000000000000000000000000000000000000000000000000000000000000000000000000000000000000000000000000000000000000000000000000000000000000000000000000000000000000000000000000000000000000000000000000000000000000000000000000000000000000000000000000000000000000000000000000000000000000000000000000000000000000000000000000000000000000000000000000000000000000000000000000000000000000000000000000000000000000000000000000000000000000000160000000000000000000000000000000000000000000000000000000000000000000000000000000000000000000000000000000000000000000000565300000000000000000000000000000000000000000000000000000000000000000000000000000000000000000000000000000000000000000000000000000000000000000000000000000000000000000000000000000000000000000000000000000000000000000000000000000000000000000000000000000000000000000000000000000000000000000000000000000053560000000000000000000000000000000000000000000000000000000000000000000000000000000000000000000000000000000000000000000000565300000000000000000000000000000000000000000000000000000000000000000000000000000000000000000000000000000000000000000000000000000000000000000000000000000000000000000000000000000000000000000000000000000000000000000000000000000000000000000000000000000000000000000000000000000000000000000000000000000053560000000000000000000000000000000000000000000000000000000000000000000000000000000000000000000000000000000000000000000000
#019380:26
#021380:0000001300230000
#021351:0000000000130023
#024351:13230000
#024321:00001323
#025351:13230000
#0253b1:0000001300000000
#025371:0000000000230000
#025320:0000000000130000
#025360:0000000000000023
#028380:13230000
#0283b0:00001323
#029380:13230000
#029320:0000001300000000
#029360:0000000000230000
#0293b1:0000000000130000
#029371:0000000000000023
#033371:0013002300000000
#0353b1:0013
#035371:00000023
#0393a1:14
#039371:0000000000240000
#039350:14
#039320:0000000000240000
#040380:13
#0403b0:00230000
#040350:0013
#040320:00000023
#041380:13
#0413b0:00230000
#041360:0000001300000000
#041320:0000000000230000
#041371:0000000000130000
#0413b1:0000000000000023
#044351:13
#044321:00230000
#044381:0013
#0443b1:00000023
#045351:13
#045321:00230000
#045371:0000001300000000
#0453b1:0000000000230000
#045360:0000000000130000
#045320:0000000000000023
#048320:0000000000000013
#049320:0023000000000000
#051320:0013
#051360:00000023
#0543b0:13
#054380:0000002300000000
#054321:13
#054351:0000002300000000
#055381:0000001300003300
#055391:00000000000000005300005300530053
#0553a1:0000000000330033
#056381:5353260000000000
#055320:0000001300003300
#055330:00000000000000005300005300530053
#055340:0000000000330033
#056320:5353260000000000
#0573b0:0013002300000000
#057380:00530000
#057361:0000001300002300
#057321:00000000000000000053000000000000
#058341:13230000
#058391:00001323
#0593b1:0000001300000000
#059371:0000000000230000
#059360:0000001300000000
#059320:0000000000230000
#061320:0013002300000000
#061350:00530000
#061371:0000001300002300
#0613b1:00000000000000000053000000000000
#063361:0000001300000000
#063321:0000000000230000
#0633b0:0000001300000000
#063370:0000000000230000
#0643b0:13000023
#064370:0000005300000000
#064321:0000001300000000
#064361:00000053
#065321:23
#065370:13000023
#0653b0:0000005300000000
#065361:0000001300000000
#065321:00000053
#066361:23
#0663b0:13000023
#066370:0000005300000000
#066321:0000001300000000
#066361:00000053
#067321:23
#067371:0000000000000013
#0683b1:00230000
#068360:00130000
#068320:0023
#0693b0:0013000023000000
#069370:00000000005300000000000000000000
#070320:160000000000000000000000000000000000000000000000000000000000000000000000000000000000000000000000000000000000000000000000000000000000000000000000000000000000000000000000000000000000000000000000000000000000000000000000000000000000000000000000565300000000000000000000000000000000000000000000000000000000000000000000000000000000000000000000000000000000000000000000000000000000000000000000000000000000000000000000000000000000000000000000000000000000000000000000000000000000000000000000000000000000000000000000000000000000000000000000000000000000000000000000000000000000000000000000000000000000000000000000000000000000000000000000000000000000000000000000000000000000000000000000000000000000000000000000000000000000000000000000000000000000000000000000000000000000000000000000000000000000000000000000000000000000000000000000000000000000000000000000000000000000000000000000000000000000000000000000000000000000000000000000000000000000000000000000000000000000000000000000230000000000000000000000000000000000000000000000000000000000000000000000000000000000000000000000000000000000000000000000000000000000000000000000000000000000000000000000000000000000000000000000000000000000000000000000000000000000000000000000000000000000000000000000000000000000000000000000000000000000000000000000000000000000000000000000000000000000000000000000000000000000000000000000000000000000000000000000000000000000000000000000000000000000000000000000000000000000000000000000000000000000000000000000000000000000000000000000000000000000000000000000000000000000000000000000000000000000000000000000000000000000000000000000000000000000000000000000000000000000000000000000000000000000000000000000000000000000000000000000000000000000000000000000000000000000000000000000000000000000000000000000000000000000000000000000000000000000000000000000000000000000000000000000000000000000000000000000000000000000000000000000000000000000000000000000000000000000000000000000000000000000000000000000000000000000000000000000000000000000000000000000000000000000000000000000000000000000000000000000000000000000000000000000000000000000000000000000000000000000000000000000000000000000000000000000000000000000000000000000000000000000000000000000000000000000000000000000000000000000000000000000000000000000000000000000000000000000000000000000000000000000000000000000000000000000000000000000000000000000000000000000000000000000000000000000000000000000000000000000000000000000000000000000000000000000000000000000000000000000000000000000000000000000000000000000000000000000000000000000000000000000000000000000000000000000000000000000000000000000000000000000000000000000000000000000000000000000000000000000000000000000000000000000000000000000000000000000000000000000000000000000000000000000000000000000000000000000000000000000000000000000000000000000000000000000000000000000000000000000000000000000000000000000000000000000000000000000000000000000000000000000000000000000000000000000000000000000000000000000000000000000000000000000000000000000000000000000000000000000000000000000000000000000000000000000000000000000000000000000000000000000000000000000000000000000000000000000000000000000000000000000000000000000000000000000000000000000000000000000000000000000000000000000000000000000000000000000000000000000000000000000000000000000000000000000000000000000000000000000000000000000000000000000000000000000000000000000000000000000000000000000000000000000000000000000000000000000000000000000000000000000000000000000000000000000000000000000000000000000000000000000000000000000000000000000000000000000000000000000000000000000000000000000000000000000000000000000000000000000000000000000000000000000000000000000000000000000000000000000000000000000000000000000000000000000000000000000000000000000000000000000000000000000000000000000000000000000000000000000000000000000000000000000000000000000000000000000000000000000
#0703a1:00122200
#070381:0000005600000000
#070340:0012
#070320:00000026
#070381:000000000000000000000000000000000000000000000000000000000000000000000000000000000000000000000000000000000000000000000000000000000000000000000000000000000000000000000000000000000000000000000000000000000000000000000000000000000000000000000000000000000000000000000000000000000000000000000000000000000000000000000000000000000000000000000000000000000000000000000000000000000000000000000000000000000000000000000000000000000000000000000000000000000000000000000000000000000000000000000000000000000000000000000000000000000000000000000000000000000000000000000000000000000000000000000000000000000000000000000000000000000000000000000000000000000000000000000000000000000000000000000000000000000000000000000000000000000000000000000000000000000000000000000000000000000000000000000000000000000000000000000000000000000000000000000000000000000000000000000000000000000000000000000000000000000000000000000000000000000000000000000000000000000000000000000000000000000000000000000000000000000000000000000000000000000000000000000000000000000000000000000000000000000000000000000000000000000000000000000000000000000000000000000000000000000000000000000000000000000000000000000000000000000000000000000000000000000000000000000000000000000000000000000000000000000000000000000000000000000000000000000000000000000000000000000000000000000000000000000000000000000000000000000000000000000000000000000000000000000000000000000000000000000000000000000000000000000000000000000000000000000000000000000000000000000000000000000000000000000000000000000000000000000000000000000000000000000000000000000000000000000000000000000000000000000000000000000000000000000000000000000000000000000000000000000000000000000000000000000000000000000000000000000000000000000000000000000000000000000000000000000000000000000000000000000000000000000000000000000000000000000000000000000000000000000000000000000000000000000000000000000000000000000000000000000000000000000000000000000000000000000000000000000000000000000000000000000000000000000000000000000000000000000000000000000000000000000000000000000000000000000000000000000000000000000000000000000000000000000000000000000000000000000000000000000000000000000000000000000000000000000000000000000000000000000000000000000000000000000000000000000000000000000000000000000000000000000000000000000000000000000000000000000000000000000000000000000000000000000000000000000000000000000000000000000000000000000000000000000000000000000000000000000000000000000000000000000000000000000000000000000000000000000000000000000000000000000000000000000000000000000000000000000000000000000000000000000000000000000000000000000000000000000000000000000000000000000000000000000000000000000000000000000000000000000000000000000000000000000000000000000000000000000000000000000000000000000000000000000000000000000000000000000000000000000000000000000000000000000000000000000000000000000000000000000000000000000000000000000000160000000000000000000000000000000000000000000000000000000000000000000000000000000000000000000000000000000000000000000000565300000000000000000000000000000000000000000000000000000000000000000000000000000000000000000000000000000000000000000000000000000000000000000000000000000000000000000000000000000000000000000000000000000000000000000000000000000000000000000000000000000000000000000000000000000000000000000000000000000053560000000000000000000000000000000000000000000000000000000000000000000000000000000000000000000000000000000000000000000000565300000000000000000000000000000000000000000000000000000000000000000000000000000000000000000000000000000000000000000000000000000000000000000000000000000000000000000000000000000000000000000000000000000000000000000000000000000000000000000000000000000000000000000000000000000000000000000000000000000053560000000000000000000000000000000000000000000000000000000000000000000000000000000000000000000000000000000000000000000000
#071381:26
