This file was generated by Ched 2.6.2.0.
#TITLE ""
#ARTIST ""
#DESIGNER ""
#DIFFICULTY 0
#PLAYLEVEL
#SONGID ""
#WAVE ""
#WAVEOFFSET 0
#JACKET ""
#REQUEST "ticks_per_beat 480"
#00002: 4
#BPM01: 176
#00008: 01
#TIL00: ""
#HISPEED 00
#MEASUREHS 00
#0001a:0000000000140000
#00014:00000014
#00018:13130000
#00015:0013001300000000
#00418:0000000000130013
#00415:00230013
#0041b:00230000
#00410:00410000
#00618:0013000000000000
#00612:13130000
#00615:0000000000130000
#0061b:00001313
#00718:0013000000001300
#00715:0000001300000013
#00712:13
#0101b:13000013
#01018:00131300
#01015:0013000000130000
#01012:0000001300000000
#0111b:0013000000000000
#01112:13
#01218:13000013
#01212:13000013
#01210:41
#01615:0000000000130000
#01618:00000013
#0161b:0013
#01612:0000000000000013
#01715:0013
#01718:0000000000130000
#01712:00000013
#0171b:0000000000000013
#01919:1313131300000000
#01914:1313131300000000
#0191a:00000024
#01912:00000024
#02315:1300000000000013
#02314:0000001400000000
#0231b:00000013
#02318:0013000000000000
#02415:0000001300000000
#02412:0000000000000013
#0251b:0000001300000013
#02515:0000001300000013
#02518:0000000000130000
#02512:0000000000130000
#02718:1400000000000013
#0271a:0000001400000000
#02714:0014000000000000
#02712:00000013
#04214:14
#04218:00140000
#04212:0014
#0421a:00000014
#04318:0014000000000013
#04314:14
#04312:0000001400001300
#04714:0014000000000000
#04718:14
#0471a:0000001400000000
#0151b:0000000000000013
#01518:13
#01515:0013000000000013
#03212:1400001414001400
#05512:13
#0551b:13
#05515:0000001300000000
#05518:0000000000130000
#05513:00000014
#02012:00140000
#0201a:00000014
#02018:0013
#02010:41
#02112:13140000
#0211a:00000014
#0211b:0013
#02214:00140000
#02218:00000014
#02212:13
#0221b:0013
#03014:14140014
#03018:0014001400140000
#03012:0014
#0301a:0000000000000014
#03114:14
#03118:0014000000000000
#03112:0000001400000000
#03318:1400001414001400
#03414:1400001414001400
#0351a:1400001414001400
#0481a:1400001414001400
#0481f:11
#04914:1400001414001400
#05018:1400001414001400
#05112:1400001414001400
#05414:00000013
#05419:00000013
#00112:0000000000140000
#00118:0013001300001400
#00115:13130000
#0021a:0000000000140000
#00214:00000014
#0021b:13
#00215:0013000000000000
#00218:00130000
#00212:0000001300000000
#00312:13
#00318:0013000000000000
#00315:0000131300000000
#0031b:0000001300000000
#00515:13
#00518:0013000000000000
#0051b:0000001300000000
#00815:0000000000130013
#00818:00230013
#00812:00230000
#00918:13
#00915:0013000000000000
#00912:0000001300000000
#01315:13000013
#0131b:13000013
#01418:13000013
#01412:13000013
#02818:0000001300000000
#0281b:0000000000000013
#02810:41
#02912:0000001300000013
#02918:0000001300000013
#02915:0000000000130000
#0291b:0000000000130000
#03615:13130013
#03618:0013000000000000
#03715:0000130000130013
#03718:0000001300000000
#0371b:00000013
#0391b:00000013
#03915:0000000000000013
#03914:24
#04015:0000001300000000
#04012:0000000000000013
#0401b:0013
#04018:13
#04010:41
#0411b:0000001300000013
#04115:0000001300000013
#04118:1300000000130000
#04112:0000000000130000
#04418:0000001300000000
#0441b:0000000000000013
#04412:0013
#04415:13
#04512:0000001300000013
#04518:0000001300000013
#04515:1300000000130000
#0451b:0000000000130000
#05218:13130013
#05215:0013000000000000
#0531b:0000130000000013
#05315:0000001300000000
#05318:0000000000130000
#05312:00000013
#05612:0000000000130000
#05618:00260013
#05615:0000000000000013
#05619:14
#0561f:00210000
#05815:0013000013000000
#0581b:00130000
#05818:1300000000130000
#05812:00000013
#05810:41
#05912:00000013
#05918:1300001300000013
#05915:0013000000000000
#0571b:13
#05715:0013000000000000
#05712:0000001300000000
#06212:13000013
#06215:00131300
#06218:0013000000130000
#0621b:0000001300000000
#06312:0013000000000000
#0631b:1300001300000000
#06315:0000001300000000
#06018:0000000000130013
#06015:00000013
#06012:00240000
#0601a:00240000
#06115:13
#06118:0013000000000000
#0611b:0000001300000000
#06415:13000013
#0641b:13000013
#06518:13000013
#06512:13000013
#06615:13000013
#0661b:13000013
#06715:13
#06718:0013000000000013
#06712:0000000000000013
#06818:0000000000130000
#06815:00000013
#06812:0013
#0681b:0000000000000013
#06918:0013
#06915:0000000000130000
#0691b:00000013
#06912:0000000000000013
#07114:1313131300000000
#07119:1313131300000000
#07112:00000024
#0711a:00000024
#02618:1400000000140000
#02614:0014000014000000
#0261a:00140000
#02612:00000014
#03818:1400001400000000
#03814:0014000000000000
#03812:0014
#03819:0000000000140000
#03813:00000014
#0381a:0000000000000014
#01812:2626
#01818:00260026
#07018:2626
#07012:00260026
#0005a:0000000000140000
#00054:00000014
#03252:00000014
#00755:0000005300000000
#01258:53
#01252:53
#0155b:0000000000000053
#01555:0053000000000053
#02152:00140000
#0215a:00000014
#02254:00140000
#02258:00000014
#0205a:00000014
#02052:00140000
#02354:0000001400000000
#0275a:0000001400000000
#03152:0000001400000000
#03358:00000014
#03454:00000014
#0355a:00000014
#04254:14
#04258:00140000
#04252:0014
#0425a:00000014
#04352:0000001400000000
#0475a:0000001400000000
#0485a:00000014
#04954:00000014
#05058:00000014
#05152:00000014
#00152:0000000000140000
#00158:00000014
#0025a:0000000000140000
#00254:00000014
#0045b:00130000
#00455:00130000
#0035b:0000005300000000
#00355:0000005300000000
#00558:0053000000000000
#0055b:0000005300000000
#00858:00130000
#00852:00130000
#00955:0063000000000000
#00952:0000006300000000
#01355:63
#0135b:63
#01458:53
#01452:53
#0195a:00000014
#01952:00000014
#0405b:0053
#04058:53
#04158:53
#04452:0063
#04455:63
#04555:63
#0535b:0000000000000063
#05658:00160000
#05659:24
#05958:0000006300000000
#05755:0063000000000000
#05752:0000006300000000
#0605a:00140000
#06052:00140000
#06158:0053000000000000
#0615b:0000005300000000
#0635b:0000005300000000
#06355:0000005300000000
#06455:63
#0645b:63
#06558:53
#06552:53
#06655:63
#0665b:63
#06758:0063000000000063
#06752:0000000000000063
#07152:00000014
#0715a:00000014
#0555b:13
#05552:13
#03954:54
#0033b0:0000001300000000
#004380:23
#003351:0000001300000000
#004321:23
#005381:0013000000002300
#0053b1:0000003300000000
#007351:0000001300000000
#007321:0000000000230000
#009351:0013000000002300
#009321:0000003300000000
#011321:0000001300230000
#011380:0000001300230000
#012380:13
#0123b0:0000002300000000
#012321:13
#012351:0000002300000000
#013351:13
#013321:0000002300000000
#0133b0:13
#013380:0000002300000000
#014380:13
#0143b0:0000002300000000
#014321:13
#014351:0000002300000000
#015351:0013000000000000
#015321:0023
#0153b1:0000000000000013
#016381:00230000
#015350:0000000000000013
#016320:00230000
#0173b0:0013002300000000
#024380:13230000
#0243b0:00001323
#025380:13230000
#028350:13230000
#028320:00001323
#029350:13230000
#036380:0000001300000000
#0363b0:0000000000230000
#0363b0:0000000000000013
#037380:0023000000000000
#039340:14
#039320:0024
#040380:13
#0403b0:00230000
#0403b0:0013
#040380:00000023
#041380:13
#0413b0:00230000
#044350:13
#044320:00230000
#044320:0013
#044350:00000023
#045350:13
#045320:00230000
#0463a0:14240000
#046341:14240000
#046321:00001424
#046380:00001424
#052350:0000001300000000
#052320:0000000000230000
#052320:0000000000000013
#053350:0023000000000000
#0533b0:0000000000000013
#054380:0023
#055390:0000000000000014
#056390:54
#056380:00260000
#057350:0013000000002300
#057320:0000003300000000
#059380:0000001300000000
#0593b0:0000000000230000
#061380:0013000000002300
#0613b0:0000003300000000
#0633b0:0000001300000000
#063380:0000000000230000
#063351:0000001300000000
#063321:0000000000230000
#064351:13
#064321:0000002300000000
#0643b0:13
#064380:0000002300000000
#065380:13
#0653b0:0000002300000000
#065321:13
#065351:0000002300000000
#066351:13
#066321:0000002300000000
#0663b0:13
#066380:0000002300000000
#067380:0013000000000000
#0673b0:0023
#067320:0000000000000013
#068350:00230000
#067381:0000000000000013
#0683b1:00230000
#069321:0013002300000000
