This file was generated by Ched 2.7.0.0.
#TITLE ""
#ARTIST ""
#DESIGNER ""
#DIFFICULTY 0
#PLAYLEVEL
#SONGID ""
#WAVE ""
#WAVEOFFSET 0
#JACKET ""
#REQUEST "ticks_per_beat 480"
#00002: 4
#BPM01: 176
#00008: 01
#TIL00: ""
#HISPEED 00
#MEASUREHS 00
#00017:0000000000140000
#00015:00130014
#00013:00000000001300000000000000000000
#0001a:00000000001300000000000000000000
#00018:00130000
#0041b:0000000000130000
#00418:00000013
#00415:0000000000130013
#00412:002c0000
#00410:00410000
#00512:1313001300000000
#00516:00001300000000000013000000000000
#0051b:00000013
#0051a:0000000000130000
#00518:13
#00519:0013
#0061b:13131300
#00617:0013001300001300
#00616:0000130000130000
#00612:13001313
#01217:13
#0121b:0000001300000000
#01216:0000001300000000
#01212:23
#01210:41
#01512:1300130000130000
#01516:0013000013000013
#01517:00130000
#0151b:1313000000001313
#01519:0013
#01515:00000000000000000033003300000000
#0171b:0013000000000000
#01716:0013001300001600
#01718:0016
#01714:00000000001300000000160000000000
#01712:0000130000000016
#02017:13000013
#02016:00131300
#02012:0000001300000000
#0201b:0000000000000013
#02010:41
#0241b:2300001300001300
#02417:1300131313000013
#02412:0000000013000013
#0251b:1300000000000013
#02517:13130000
#02516:0000001300000000
#02514:0013
#02519:00000013
#02716:13130013
#02712:13130000
#0271a:00000013
#02718:0000000000000013
#03219:00130000
#03217:00001313
#0321b:2300000000000013
#03212:0000001300000000
#03917:0000000000000013
#0391a:00000013
#03913:00000000000000000000000000130000
#03912:1300000000260000
#0391b:13
#03918:0026000000000000
#03915:0000002600000000
#01618:0000000000000016
#01612:00131600
#01616:0000000000160000
#01614:00000016
#01617:00130000000000000000000000000000
#0071b:13000000000000001300000000000013
#00715:00001300000000000000001300001300
#00712:13000000130000000013000000000000
#00718:00001300000013000000000000130000
#00719:0000000000130000
#00716:00000014
#0541b:13333333333333333300000000000000
#05412:13333333333333333300000000000000
#05419:00000000000000000000333300000000
#0541a:00000000000000000033000000000000
#05414:00000000000000000000333300000000
#05413:00000000000000000033000000000000
#0261a:14
#02612:1313130014000000
#02616:00140014
#02618:0014000000000000
#0261b:0000000013131300
#02614:0000000000140000
#00117:0000131500000000000000000000000000000000000000000000000000000000
#00116:00000016
#00114:0000000000160000
#00214:00130000
#00212:00000000001300000000000000000000
#00219:00000000001300000000000000000000
#00217:00130000
#00215:0000000000180000
#00213:00000018
#00319:000000000000130000150000000000000000000000000000000000000000000000000000000000000000000000000000000000000000000000000000000000000000000000000000000000000000000033000000330000000000000000000000
#00313:000000000000000000000000003300000000000000000000
#00314:000000000000003300000000
#00315:0000000000330000
#00316:000000000000000000000000000000003333000000000000
#00317:00000033
#00318:000000000000000000000000000000000000003300000000
#0031a:000000000000000000000000000000000000000000003333
#02312:1300000000130013
#0231b:13000000000000000000001300000000
#02315:00001313
#02318:00000000000000000013000000130000
#03617:13
#03619:0013000000130000
#0361b:00132300
#03612:23130000
#03614:0000001300000013
#03616:0013
#03615:00000016
#02812:2300001300001300
#02816:1300131313000013
#0281b:0000000013000013
#02810:41
#02912:1300000000000013
#02916:13130000
#02917:0000001300000000
#02919:0013
#02914:00000013
#03117:13130000
#0311b:13130000
#03118:0000000000130000
#03115:00000013
#03017:0013000000130000
#03016:0000001300000013
#03012:13000013
#03312:0000001300000000
#03319:0013000000000000
#03317:0000001300000000
#0331b:0013
#03812:23001313
#0381b:13001313
#03815:0000000000160016
#04014:0000001300000013
#0401b:1300130000130000
#04016:13
#04019:0000001300000013
#04012:0013000013001300
#04017:0013
#04010:41
#04316:13
#04312:13130000
#04317:00130000
#04318:0000000000000013
#04315:00000013
#04215:1300131313001313
#04218:1313130013131300
#04212:0013000000130000
#0421b:0000001300000013
#04716:13130000
#0471b:13130000
#04715:0000000000130000
#04718:00000013
#05512:14
#0551a:140000000000000000000000000000000000000000003333
#05518:000000130000000000130000000000000000003300000000
#05515:0000130000330000
#05513:000000000000000000000000003300000000000000000000
#05514:000000000000003300000000
#05516:000000000000000000000000000000003333000000000000
#05517:00000033
#05519:000000000000000000000000000000000000000033330000
#01912:13132323
#0191b:0013001300130000
#01916:1300130000130000
#01917:0013001323002300
#01919:000000000000000000000000003300000033000000000000
#0191a:000000000000003333000000
#01914:000000000000000000000000003300000033000000000000
#01915:000000000000003333000000
#01812:1313
#01815:26000000001600000000000026000000
#0181b:00130013
#01817:00222200
#0711b:13132323
#07112:0013001300130000
#07117:1300130000130000
#07116:0013001323002300
#07114:000000000000000000000000003300000033000000000000
#07113:000000000000003333000000
#07119:000000000000000000000000003300000033000000000000
#07118:000000000000003333000000
#07015:26000000001600000000000026000000
#0701b:1313
#07012:00130013
#07017:00222200
#00812:13002c0000130000
#00815:00000013
#00818:0000000000130013
#0091b:1313001300000000
#00917:00001300000000000013000000000000
#00915:13
#00912:00000013
#00913:0000000000130000
#00914:0013
#01012:13131300
#01016:0013001300001300
#01017:0000130000130000
#0101b:13001313
#01112:1313
#0111b:13130000
#01118:0013000000130000
#01115:0013001300000000
#06912:0013000016000000
#06917:0013001300000000
#06916:0000000000160000
#06914:00000016
#06918:0000000000000016
#0691b:00130000
#06919:00000000001300000000000000000000
#06812:0000000000000016
#06818:0016
#06814:0000000000160000
#06816:00130000000000000000000016000000
#0681b:00130000
#01316:13
#01312:0000001300000000
#01317:0000001300000000
#0131b:23
#01417:13
#0141b:0000001300000000
#01416:0000001300000000
#01412:23
#0211b:1300000000000013
#02116:00130000
#02112:0000001313000000
#02117:00000013
#02217:13000013
#02216:00131300
#02212:0000001300000000
#0221b:0000000000000013
#02218:0000001300000000
#02215:0000000000000013
#03512:0000001400000000
#0351a:0014000014000000
#03517:0000001400000000
#03412:0000001400000000
#03416:0014
#0341a:1400000000000014
#03418:00140014
#03717:13
#03719:0013000000130000
#0371b:00132300
#03712:23130000
#03714:0000001300000013
#03716:0013
#03715:00000016
#0411b:13
#04116:13
#04112:0013000000000013
#04419:0000001300000013
#04412:1300130000130000
#04417:13
#04414:0000001300000013
#0441b:0013000013001300
#04416:0013
#04512:13
#04517:13
#0451b:0013000000000013
#04618:1313130013131300
#04615:1300131313001313
#04612:0013000000130000
#0461b:0000001300000013
#04814:00130000
#04816:00001313
#04812:2300000000000013
#0481b:0000001300000000
#0481f:11
#0491b:0000001300000000
#04914:0013000000000000
#04916:0000001300000000
#04912:0013
#0511a:0000001400000000
#05112:0014000014000000
#05115:0000001400000000
#0501a:0000001400000000
#05016:0014
#05012:1400000000000014
#05014:00140014
#05216:1313000000000013
#05217:0000001313130000
#05214:00130000
#0521b:2300130000000013
#05212:0000001323001300
#05219:00000013
#05612:0000260000130000
#05615:00000013
#05618:0000260000130013
#0561f:00210000
#0571b:1313001300000000
#05717:00001300000000000013000000000000
#05716:00000013
#05714:0000000000130000
#05715:13
#05712:0013
#05817:13000013
#05812:0013001300001300
#05816:00131300
#0581b:0000000000130000
#05810:41
#05912:13000000000000001300000000000013
#05918:00001300000000000000001300001300
#0591b:13000000130000000013000000000000
#05915:00001300000013000000000000130000
#05914:0000000000130000
#05916:00000014
#0601b:1300000000130000
#06018:00260013
#06015:0000000000130013
#06012:00260000
#06112:1313001300000000
#06116:00001300000000000013000000000000
#06118:13
#0611b:00000013
#0611a:0000000000130000
#06119:0013
#0631b:1313
#06312:13130000
#06315:0013000000130000
#06318:0013001300000000
#06416:13
#06412:0000001300000000
#06417:0000001300000000
#0641b:23
#06517:13
#0651b:0000001300000000
#06516:0000001300000000
#06512:23
#06616:13
#06612:0000001300000000
#06617:0000001300000000
#0661b:23
#0671b:1300130000130000
#06717:0013000013000013
#06716:00130000
#06712:1313000000001313
#06714:0013
#06718:00000000000000000033003300000000
#05316:1313000000000013
#05317:0000001313130000
#05314:00130000
#0531b:2300130000000013
#05312:0000001323001300
#05319:00000013
#06216:13000013
#0621b:0013001300001300
#06217:00131300
#06212:0000000000130000
#00556:00005300000000000023000000000000
#00552:0000005300000000
#00559:0043
#0055a:0000000000430000
#0055b:00000043
#01257:53
#0125b:0000005300000000
#01256:0000006300000000
#01756:0053002300000000
#01752:00230000
#01754:00000000006300000000000000000000
#0545b:53
#05452:63
#00055:00530034
#00058:00530000
#00053:00000000002300000000000000000000
#0005a:00000000002300000000000000000000
#00057:0000000000440000
#00157:0000532500000000000000000000000000000000000000000000000000000000
#00156:00000046
#00154:0000000000360000
#00254:00530000
#00252:00000000002300000000000000000000
#00259:00000000002300000000000000000000
#00257:00530000
#00255:0000000000480000
#00253:00000038
#00359:0000532500000000000000000000000000000000000000000000000000000000
#02352:0000001300000000
#0235b:0000001300000000
#02457:53
#02452:0053
#02557:53
#02752:00230000
#02756:00230000
#0275b:0000004300000000
#02956:63
#0285b:0063
#02856:63
#0315b:00230000
#03157:00230000
#03152:0000003300000000
#03252:00000013
#03352:00000013
#0335b:0053
#04352:00230000
#04357:00230000
#0435b:0000004300000000
#04356:0000004300000000
#04258:1313
#04255:00130013
#0475b:00230000
#04756:00230000
#04757:0000003300000000
#04752:0000003300000000
#04056:53
#04052:0023000000000000
#04057:0063
#0405b:0000000000230000
#00452:003c0000
#00852:004c0000
#01857:00522200
#01855:00000000002600000000000000000000
#01852:3333
#0185b:00430043
#07055:00000000002600000000000000000000
#07057:00522200
#0705b:4343
#07052:00330033
#00957:00006300000000000023000000000000
#0095b:0000006300000000
#00952:00000033
#00953:0000000000330000
#00954:0033
#00752:00230000
#00755:0063000000000000
#01158:0053000000000000
#0115b:00230000
#01155:0000006300000000
#01152:0023
#06957:0063002300000000
#0695b:00230000
#06959:00000000005300000000000000000000
#05652:00360000
#05658:00360000
#01356:63
#01352:0000006300000000
#01357:0000005300000000
#01457:53
#0145b:0000005300000000
#01456:0000006300000000
#0155b:0000000000004353
#01556:0053
#01552:0000000000230000
#01557:00430000
#01559:0043
#01657:00230000000000000000000000000000
#02056:00130000
#02057:00000013
#02156:00130000
#02157:00000013
#02256:00130000
#02257:00000013
#03552:00000014
#0355a:0054
#03452:00000014
#03657:13
#03656:0013
#03757:13
#03756:0013
#04156:53
#04152:0023000000000000
#04457:63
#0445b:0023000000000000
#04456:0053
#04452:0000000000230000
#04557:63
#0455b:0023000000000000
#04655:1313
#04658:00130013
#04952:0063
#0495b:00000013
#05152:0064
#0515a:00000014
#0485b:00000013
#0505a:00000014
#05256:33
#05257:0043
#05552:14
#0555a:14
#05757:00006300000000000023000000000000
#0575b:0000006300000000
#05756:00000033
#05754:0000000000330000
#05752:0033
#05958:0053000000000000
#0595b:00230000
#06156:00005300000000000023000000000000
#06152:0000005300000000
#0615b:00000043
#0615a:0000000000430000
#06159:0043
#06355:0063000000000000
#06352:00230000
#06358:0000005300000000
#0635b:0023
#06456:63
#06452:0000006300000000
#06457:0000005300000000
#06557:53
#0655b:0000005300000000
#06556:0000006300000000
#06656:63
#06652:0000006300000000
#06657:0000005300000000
#06058:00460000
#06052:00460000
#06756:00330000
#06752:0000000000003363
#06754:0033
#06757:0063
#0675b:0000000000230000
#06856:00230000000000000000000000000000
#0195b:0000000000230000
#01956:0000000000230000
#01957:00006333
#01952:00006333
#05356:33
#05357:0043
#07152:0000000000230000
#07157:0000000000230000
#07156:00005343
#0715b:00005343
#000340:130000000000000000000000000000000000000000000000000000000000000000000000000000000000000000000000000000000000000000000000000000000000000000000000000000000000000000000000000000000000000000000000000000000000000000000000000000000000000000000053540000000000000000000000000000000000000000000000000000000000000000000000000000000000000000000000000000000000000000000000000000000000000000000000000000000000000000000000000000000000000000000000000000000000000000000000000000000000000000000000230000000000000000000000000000000000000000000000000000000000000000000000000000000000000000000000000000000000000000000000000000000000000000000000000000000000000000000000000000000000000000000000000000000000000000000000000000000000000000000000000000000000000000000000000000000000000000000000000000000000000000000000000000000000000000000000000000000000000000000000000000000000000000000000000000000000000000000000000000000000000000000000000000000000000000000000000000000000000000000000000000000000000000000000000000000000000000000000000000000000000000000000000000000000000000000000000000000000000000000000000000000000000000000000000000000000000000000000000000000000000000000000000000000000000000000000000000000000000000000000000000000000000000000000000000000000000000000000000000000000000000000000000000000000000000000000000000000000000000000000000000000000000000000000000000000000000000000000000000000000000000000000000000000000000000000000000000000000000000000000000000000000000000000000000000000000000000000000000000000000000000000000000000000000000000000000000000000000000000000000000000000000000000000000000000000000000000000000000000000000000000000000000000000000000000000000000000000000000000000000000000000000000000000000000000000000000000000000000000000000000000000000000000000000000000000000000000000000000000000000000000000000000000000000000000000000000000000000000000000000000000000000000000000000000000000000000000000000000000000000000000000000000000000000000000000000000000000000000000000000000000000000000000000000000000000000000000000000000000000000000000000000000000000000000000000000000000000000000000000000000000000000000000000000000000000000000000000000000000000000000000000000000000000000000000000000000000000000000000000000000000000000000000000000000000000000000000000000000000000000000000000000000000000000000000000000000000000000000000000000000000000000000000000000000000000000000000000000000000000000000000000000000000000000000000000000000000000000000000000000000000000000000000000000000000000000000000000000000000000000000000000000000000000000000000000000000000000000000000000000000000000000000000000000000000000000000000000000000000000000000000000000000000000000000000000000000000000000000000000000000000000000000000000000000000000000000000000000000000000000000000000000000000000000000000000000000000000000000000000000000000000000000000000000000000000000000000000000000000000000000000000000000000000000000000000000000000000000000000000000000000000000000000000000000000000000000000000000000000000000000000000000000000000000000000000000000000000000000000000000000000000000000000000000000000000000000000000000000000000000000000000000000000000000000000000000000000000000000000000000000000000000000000000000000000000000000000000000000000000000000000000000000000000000000000000000000000000000000000000000000000000000000000000000000000000000000000000000000000000000000000000000000000000000000000000000000000000000000000000000000000000000000000000000000000000000000000000000000000000000000000000000000000000000000000000000000000000000000000000000000000000000000000000000000000000000000000000000000000000000000000000000000000000000000000000000000000000000000000000000000000000000000000000000000000000000000000000000000000000000000000000000000000000000000000000000000000000000000000000000000000000000000000000000000000000000000000000000000000000000
#000391:130000000000000000000000000000000000000000000000000000000000000000000000000000000000000000000000000000000000000000000000000000000000000000000000000000000000000000000000000000000000000000000000000000000000000000000000000000000000000000000053000000000000000000000000000000000000000000000000000000000000000000000000000000000000000000000000000000000000000000000000000000000000000000000000000000000000000000000000000000000000000000000000000000000000000000000000000000000000000000000000230000000000000000000000000000000000000000000000000000000000000000000000000000000000000000000000000000000000000000000000000000000000000000000000000000000000000000000000000000000000000000000000000000000000000000000000000000000000000000000000000000000000000000000000000000000000000000000000000000000000000000000000000000000000000000000000000000000000000000000000000000000000000000000000000000000000000000000000000000000000000000000000000000000000000000000000000000000000000000000000000000000000000000000000000000000000000000000000000000000000000000000000000000000000000000000000000000000000000000000000000000000000000000000000000000000000000000000000000000000000000000000000000000000000000000000000000000000000000000000000000000000000000000000000000000000000000000000000000000000000000000000000000000000000000000000000000000000000000000000000000000000000000000000000000000000000000000000000000000000000000000000000000000000000000000000000000000000000000000000000000000000000000000000000000000000000000000000000000000000000000000000000000000000000000000000000000000000000000000000000000000000000000000000000000000000000000000000000000000000000000000000000000000000000000000000000000000000000000000000000000000000000000000000000000000000000000000000000000000000000000000000000000000000000000000000000000000000000000000000000000000000000000000000000000000000000000000000000000000000000000000000000000000000000000000000000000000000000000000000000000000000000000000000000000000000000000000000000000000000000000000000000000000000000000000000000000000000000000000000000000000000000000000000000000000000000000000000000000000000000000000000000000000000000000000000000000000000000000000000000000000000000000000000000000000000000000000000000000000000000000000000000000000000000000000000000000000000000000000000000000000000000000000000000000000000000000000000000000000000000000000000000000000000000000000000000000000000000000000000000000000000000000000000000000000000000000000000000000000000000000000000000000000000000000000000000000000000000000000000000000000000000000000000000000000000000000000000000000000000000000000000000000000000000000000000000000000000000000000000000000000000000000000000000000000000000000000000000000000000000000000000000000000000000000000000000000000000000000000000000000000000000000000000000000000000000000000000000000000000000000000000000000000000000000000000000000000000000000000000000000000000000000000000000000000000000000000000000000000000000000000000000000000000000000000000000000000000000000000000000000000000000000000000000000000000000000000000000000000000000000000000000000000000000000000000000000000000000000000000000000000000000000000000000000000000000000000000000000000000000000000000000000000000000000000000000000000000000000000000000000000000000000000000000000000000000000000000000000000000000000000000000000000000000000000000000000000000000000000000000000000000000000000000000000000000000000000000000000000000000000000000000000000000000000000000000000000000000000000000000000000000000000000000000000000000000000000000000000000000000000000000000000000000000000000000000000000000000000000000000000000000000000000000000000000000000000000000000000000000000000000000000000000000000000000000000000000000000000000000000000000000000000000000000000000000000000000000000000000000000000000000000000000000000000000000000000000000000000000000000
#000381:00540000000000000000000000000000
#000351:0000132300000000
#000331:00000000005300000000000000000000
#000380:0000132300000000
#0003a0:00000000005300000000000000000000
#001340:1323000000000000
#001391:13
#001371:0000535523000000000000000000000000000000000000000000000000000000
#001341:000000000000000000000000000000000000000000000000000000000000000000000000000000000000000000000000000000000000000000000000000000000000000000000000000000000000000000000000000000000000000000000000000000000000000000000000000000000000000000000000000000000000000000000000000000000000000000000000000000000000000000000000000000000000000000000000000000000000000000000000000000000000000000000000000000000000000000000000000000000000000000000000000000000000000000000000000000000000000000000000000000000000000000000000000000000000000000000000000000000000000000000000000000000000000000000000000000000000000000000000000000000000000000000000000000000000000000000000000000000000000000000000000000000000000000000000000000000000000000000000000000000000000000000000000000000000000000000000000000000000000000000000000000000000000000000000000000000000000000000000000000000000000000000000000000000000000000000000000000000000000000000000000000000000000000000000000000000000000000000000180000000000000000000000000000000000000000000000000000000000000000000000000000000000000000585300000000000000000000000000000000000000000000000000000000000000000000000000000000000053580000000000000000000000000000000000000000000000000000000000000000000000000000000000000000585300000000000000000000000000000000000000000000000000000000000000000000000000000000000000000000000000000000000000000053580000000000000000000000000000000000000000000000000000000000000000000000000000000000000000280000000000000000000000000000000000000000000000000000000000000000000000000000000000000000000000000000000000000000000000000000000000000000000000000000000000000000000000000000000000000000000000000000000000000000000000000000000000000000000000000000000000000000000000000000000000000000000000000000000000000000000000000000000000000000000000000000000000000000000000000000000000000000000000000000000000000000000000000000000000000000000000000000000000000000000000000000000000000000000000000000000000000000000000000000000000000000000000000000000000000000000000000000000000000000000000000000000000000000000000000000000000000000000000000000000000000000000000000000000000000000000000000000000000000000000000000000000000000000000000000000000000000000000000000000000000000000000000000000000000000000000000000000000000000000000000000000000000000000000000000000000000000000000000000000000000000000000000000000000000000000000000000000000000000000000000000000000000000000000000000000000000000000000000000000000000000000000000000000000000000000000000000000000000000000000000000000000000000000000000000000000000000000000000000000000000000000000000000000000000000000000000000000000000000000000000000000000000000000000000000000000000000000000000000000000000000000000000000000000000000000000000000000000000000000000000000000000000000000000000000000000000000000000000000000000000000000000000000000000000000000000000000000000000000000000000000000000000000000000000000000000000000000000000000000000000000000000000000000000000000000000000000000000000000000000000000000000000000000000000000000000000000000000000000000000000000000000000000000000000000000000000000000000000000000000000000000000000000000000000000000000000000000000000000000000000000000000000000000000000000000000000000000000000000000000000000000000000000000000000000000000000000000000000000000000000000000000000000000000000000000000000000000000000000000000000000000000000000000000000000000000000000000000000000000000000000000000000000000000000000000000000000000000000000000000000000000000000000000000000000000000000000000000000000000000000000000000000000000000000000000000000000000000000000000000000000000000000000000000000000000000000000000000000000000000000000000000000000000000000000000000000000000000000000000000000000000000000000000000000000000000000000000000000000000000000000000000000000000000000000000000000000000000000000000000000000000000000000000000000
#002361:130000000000000000000000000000000000000000000000000000000000000000000000000000000000000000000000000000000000000000000000000000000000000000000000000000000000000000000000000000000000000000000000000000000000000000000000000000000000000000000053540000000000000000000000000000000000000000000000000000000000000000000000000000000000000000000000000000000000000000000000000000000000000000000000000000000000000000000000000000000000000000000000000000000000000000000000000000000000000000000000230000000000000000000000000000000000000000000000000000000000000000000000000000000000000000000000000000000000000000000000000000000000000000000000000000000000000000000000000000000000000000000000000000000000000000000000000000000000000000000000000000000000000000000000000000000000000000000000000000000000000000000000000000000000000000000000000000000000000000000000000000000000000000000000000000000000000000000000000000000000000000000000000000000000000000000000000000000000000000000000000000000000000000000000000000000000000000000000000000000000000000000000000000000000000000000000000000000000000000000000000000000000000000000000000000000000000000000000000000000000000000000000000000000000000000000000000000000000000000000000000000000000000000000000000000000000000000000000000000000000000000000000000000000000000000000000000000000000000000000000000000000000000000000000000000000000000000000000000000000000000000000000000000000000000000000000000000000000000000000000000000000000000000000000000000000000000000000000000000000000000000000000000000000000000000000000000000000000000000000000000000000000000000000000000000000000000000000000000000000000000000000000000000000000000000000000000000000000000000000000000000000000000000000000000000000000000000000000000000000000000000000000000000000000000000000000000000000000000000000000000000000000000000000000000000000000000000000000000000000000000000000000000000000000000000000000000000000000000000000000000000000000000000000000000000000000000000000000000000000000000000000000000000000000000000000000000000000000000000000000000000000000000000000000000000000000000000000000000000000000000000000000000000000000000000000000000000000000000000000000000000000000000000000000000000000000000000000000000000000000000000000000000000000000000000000000000000000000000000000000000000000000000000000000000000000000000000000000000000000000000000000000000000000000000000000000000000000000000000000000000000000000000000000000000000000000000000000000000000000000000000000000000000000000000000000000000000000000000000000000000000000000000000000000000000000000000000000000000000000000000000000000000000000000000000000000000000000000000000000000000000000000000000000000000000000000000000000000000000000000000000000000000000000000000000000000000000000000000000000000000000000000000000000000000000000000000000000000000000000000000000000000000000000000000000000000000000000000000000000000000000000000000000000000000000000000000000000000000000000000000000000000000000000000000000000000000000000000000000000000000000000000000000000000000000000000000000000000000000000000000000000000000000000000000000000000000000000000000000000000000000000000000000000000000000000000000000000000000000000000000000000000000000000000000000000000000000000000000000000000000000000000000000000000000000000000000000000000000000000000000000000000000000000000000000000000000000000000000000000000000000000000000000000000000000000000000000000000000000000000000000000000000000000000000000000000000000000000000000000000000000000000000000000000000000000000000000000000000000000000000000000000000000000000000000000000000000000000000000000000000000000000000000000000000000000000000000000000000000000000000000000000000000000000000000000000000000000000000000000000000000000000000000000000000000000000000000000000000000000000000000000000000000000000000000000000000000000000000000000000
#0023b0:130000000000000000000000000000000000000000000000000000000000000000000000000000000000000000000000000000000000000000000000000000000000000000000000000000000000000000000000000000000000000000000000000000000000000000000000000000000000000000000053000000000000000000000000000000000000000000000000000000000000000000000000000000000000000000000000000000000000000000000000000000000000000000000000000000000000000000000000000000000000000000000000000000000000000000000000000000000000000000000000230000000000000000000000000000000000000000000000000000000000000000000000000000000000000000000000000000000000000000000000000000000000000000000000000000000000000000000000000000000000000000000000000000000000000000000000000000000000000000000000000000000000000000000000000000000000000000000000000000000000000000000000000000000000000000000000000000000000000000000000000000000000000000000000000000000000000000000000000000000000000000000000000000000000000000000000000000000000000000000000000000000000000000000000000000000000000000000000000000000000000000000000000000000000000000000000000000000000000000000000000000000000000000000000000000000000000000000000000000000000000000000000000000000000000000000000000000000000000000000000000000000000000000000000000000000000000000000000000000000000000000000000000000000000000000000000000000000000000000000000000000000000000000000000000000000000000000000000000000000000000000000000000000000000000000000000000000000000000000000000000000000000000000000000000000000000000000000000000000000000000000000000000000000000000000000000000000000000000000000000000000000000000000000000000000000000000000000000000000000000000000000000000000000000000000000000000000000000000000000000000000000000000000000000000000000000000000000000000000000000000000000000000000000000000000000000000000000000000000000000000000000000000000000000000000000000000000000000000000000000000000000000000000000000000000000000000000000000000000000000000000000000000000000000000000000000000000000000000000000000000000000000000000000000000000000000000000000000000000000000000000000000000000000000000000000000000000000000000000000000000000000000000000000000000000000000000000000000000000000000000000000000000000000000000000000000000000000000000000000000000000000000000000000000000000000000000000000000000000000000000000000000000000000000000000000000000000000000000000000000000000000000000000000000000000000000000000000000000000000000000000000000000000000000000000000000000000000000000000000000000000000000000000000000000000000000000000000000000000000000000000000000000000000000000000000000000000000000000000000000000000000000000000000000000000000000000000000000000000000000000000000000000000000000000000000000000000000000000000000000000000000000000000000000000000000000000000000000000000000000000000000000000000000000000000000000000000000000000000000000000000000000000000000000000000000000000000000000000000000000000000000000000000000000000000000000000000000000000000000000000000000000000000000000000000000000000000000000000000000000000000000000000000000000000000000000000000000000000000000000000000000000000000000000000000000000000000000000000000000000000000000000000000000000000000000000000000000000000000000000000000000000000000000000000000000000000000000000000000000000000000000000000000000000000000000000000000000000000000000000000000000000000000000000000000000000000000000000000000000000000000000000000000000000000000000000000000000000000000000000000000000000000000000000000000000000000000000000000000000000000000000000000000000000000000000000000000000000000000000000000000000000000000000000000000000000000000000000000000000000000000000000000000000000000000000000000000000000000000000000000000000000000000000000000000000000000000000000000000000000000000000000000000000000000000000000000000000000000000000000000000000000000000000000000000000000000000000000000000000000
#0023a0:00540000000000000000000000000000
#002340:0000132300000000
#002320:00000000005300000000000000000000
#002371:0000132300000000
#002391:00000000005300000000000000000000
#003361:1323000000000000
#0033b0:13
#003390:0000535523000000000000000000000000000000000000000000000000000000
#003320:000000000000000000000000000000000000000000000000000000000000000000000000000000000000000000000000000000000000000000000000000000000000000000000000000000000000000000000000000000000000000000000000000000000000000000000000000000000000000000000000000000000000000000000000000000000000000000000000000000000000000000000000000000000000000000000000000000000000000000000000000000000000000000000000000000000000000000000000000000000000000000000000000000000000000000000000000000000000000000000000000000000000000000000000000000000000000000000000000000000000000000000000000000000000000000000000000000000000000000000000000000000000000000000000000000000000000000000000000000000000000000000000000000000000000000000000000000000000000000000000000000000000000000000000000000000000000000000000000000000000000000000000000000000000000000000000000000000000000000000000000000000000000000000000000000000000000000000000000000000000000000000000000000000000000000000000000000000000000000000000180000000000000000000000000000000000000000000000000000000000000000000000000000000000000000585300000000000000000000000000000000000000000000000000000000000000000000000000000000000053580000000000000000000000000000000000000000000000000000000000000000000000000000000000000000585300000000000000000000000000000000000000000000000000000000000000000000000000000000000000000000000000000000000000000053580000000000000000000000000000000000000000000000000000000000000000000000000000000000000000280000000000000000000000000000000000000000000000000000000000000000000000000000000000000000000000000000000000000000000000000000000000000000000000000000000000000000000000000000000000000000000000000000000000000000000000000000000000000000000000000000000000000000000000000000000000000000000000000000000000000000000000000000000000000000000000000000000000000000000000000000000000000000000000000000000000000000000000000000000000000000000000000000000000000000000000000000000000000000000000000000000000000000000000000000000000000000000000000000000000000000000000000000000000000000000000000000000000000000000000000000000000000000000000000000000000000000000000000000000000000000000000000000000000000000000000000000000000000000000000000000000000000000000000000000000000000000000000000000000000000000000000000000000000000000000000000000000000000000000000000000000000000000000000000000000000000000000000000000000000000000000000000000000000000000000000000000000000000000000000000000000000000000000000000000000000000000000000000000000000000000000000000000000000000000000000000000000000000000000000000000000000000000000000000000000000000000000000000000000000000000000000000000000000000000000000000000000000000000000000000000000000000000000000000000000000000000000000000000000000000000000000000000000000000000000000000000000000000000000000000000000000000000000000000000000000000000000000000000000000000000000000000000000000000000000000000000000000000000000000000000000000000000000000000000000000000000000000000000000000000000000000000000000000000000000000000000000000000000000000000000000000000000000000000000000000000000000000000000000000000000000000000000000000000000000000000000000000000000000000000000000000000000000000000000000000000000000000000000000000000000000000000000000000000000000000000000000000000000000000000000000000000000000000000000000000000000000000000000000000000000000000000000000000000000000000000000000000000000000000000000000000000000000000000000000000000000000000000000000000000000000000000000000000000000000000000000000000000000000000000000000000000000000000000000000000000000000000000000000000000000000000000000000000000000000000000000000000000000000000000000000000000000000000000000000000000000000000000000000000000000000000000000000000000000000000000000000000000000000000000000000000000000000000000000000000000000000000000000000000000000000000000000000000000000000000000000000000000000000000
#003320:0013
#003330:000000000000000000000000003300000000000000000000
#003340:000000000000003300000000
#003350:0000000000330000
#003360:000000000000000000000000000000003333000000000000
#003370:00000033
#003380:000000000000000000000000000000000000003300000000
#003390:000000000000000000000000000000000000000033330000
#0033a0:000000000000000000000000000000000000000000003333
#0043b0:23
#005360:0013000000000000
#0053b0:0000002300000000
#005321:0000001300002300
#005361:00000000000000000053000000000000
#007351:0013002300000000
#007321:00530000
#009371:0013000000000000
#009321:0000002300000000
#0093b0:0000001300002300
#009370:00000000000000000053000000000000
#011380:0013002300000000
#0113b0:00530000
#011351:0000001300230000
#011321:0053
#012371:13000023
#0123b1:0000005300000000
#012360:0000001300000000
#012320:00000023
#013360:13000023
#013320:0000005300000000
#013371:0000001300000000
#0133b1:00000023
#014371:13000023
#0143b1:0000005300000000
#014360:0000001300000000
#014320:00000023
#015360:00001323
#015350:00000000000000000033003300000000
#015320:0000000000330000
#0153b0:0000000000000013
#016370:00530000000000000000000000000000
#0163b0:00230000
#017360:0013005300000000
#017320:00532300
#017340:00000000005300000000000000000000
#018350:160000000000000000000000000000000000000000000000000000000000000000000000000000000000000000000000000000000000000000000000565300000000000000000000000000000000000000000000000000000000000000000000000000000000000000000000000000000000000000000000000000000000000000000000000000000000000000000000000000000000000000000000000000000000000000000000000000000000000000000000000000000000000000000000000000000000000000000000000000000000000000000000000000000000000000000000000000000000000000000000230000000000000000000000000000000000000000000000000000000000000000000000000000000000000000000000000000000000000000000000000000000000000000000000000000000000000000000000000000000000000000000000000000000000000000000000000000000000000000000000000000000000000000000000000000000000000000000000000000000000000000000000000000000000000000000000000000000000000000000000000000000000000000000000000000000000000000000000000000000000000000000000000000000000000000000000000000000000000000000000000000000000000000000000000000000000000000000000000000000000000000000000000000000000000000000000000000000000000000000000000000000000000000000000000000000000000000000000000000000000000000000000000000000000000000000000000000000000000000000000000000000000000000000000000000000000000000000000000000000000000000000000000000000000000000000000000000000000000000000000000000000000000000000000000000000000000000000000000000000000000000000000000000000000000000000000000000000000000000000000000000000000000000000000000000000000000000000000000000000000000000000000000000000000000000000000000000000000000000000000000000000000000000000000000000000000000000000000000000000000000000000000000000000000000000000000000000000000000000000000000000000000000000000000000000000000000000000000000000000000000000000000000000000000000000000000000000000000000000000000000000000000000000000000000000000000000000000000000000000000000000000000000000000000000000000000000000000000000000000000000000000000000000000000000000000000000000000000000000000000000000000000000000000000000000000000000000000000000000000000000000000000000000000000000000000000000000000000000000000000000000000000000000000000000000000000000000000000000000000000000000000000000000000000000000000000000000000000000000000000000000000000000000000000000000000000000000000000000000000000000000000000000000000000000000000000000000000000000000000000000000000000000000000000000000000000000000000000000000000000000000000000000000000000000000000000000000000000000000000000000000000000000000000000000000000000000000000000000000000000000000000000000000000000000000000000000000000000000000000000000000000000000000000000000000000000000000000000000000000000000000000000000000000000000000000000000000000000000000000000000000000000000000000000000000000000000000000000000000000000000000000000000000000000000000000000000000000000000000000000000000000000000000000000000000000000000000000000000000000000000000000000000000000000000000000000000000000000000000000000000000000000000000000000000000000000000000000000000000000000000000000000000000000000000000000000000000000000000000000000000000000000000000000000000000000000000000000000000000000000000000000000000000000000000000000000000000000000000000000000000000000000000000000000000000000000000000000000000000000000000000000000000000000000000000000000000000000000000000000000000000000000000000000000000000000000000000000000000000000000000000000000000000000000000000000000000000000000000000000000000000000000000000000000000000000000000000000000000000000000000000000000000000000000000000000000000000000000000000000000000000000000000000000000000000000000000000000000000000000000000000000000000000000000000000000000000000000000000000000000000000000000000000000000000000000000000000000000000000000000000000000000000000000000000000000000000000000000000000000000000000000000000000000000000000000000000000000000000000000000
#018370:0000122200000000
#018350:00000000005600000000000000000000
#018370:0012
#018350:0000000000260000
#018350:000000000000000000000000000000000000000000000000000000000000000000000000000000000000000000000000000000000000000000000000000000000000000000000000000000000000000000000000000000000000000000000000000000000000000000000000000000000000000000000000000000000000000000000000000000000000000000000000000000000000000000000000000000000000000000000000000000000000000000000000000000000000000000000000000000000000000000000000000000000000000000000000000000000000000000000000000000000000000000000000000000000000000000000000000000000000000000000000000000000000000000000000000000000000000000000000000000000000000000000000000000000000000000000000000000000000000000000000000000000000000000000000000000000000000000000000000000000000000000000000000000000000000000000000000000000000000000000000000000000000000000000000000000000000000000000000000000000000000000000000000000000000000000000000000000000000000000000000000000000000000000000000000000000000000000000000000000000000000000000000000000000000000000000000000000000000000000000000000000000000000000000000000000000000000000000000000000000000000000000000000000000000000000000000000000000000000000000000000000000000000000000000000000000000000000000000000000000000000000000000000000000000000000000000000000000000000000000000000000000000000000000000000000000000000000000000000000000000000000000000000000000000000000000000000000000000000000000000000000000000000000000000000000000000000000000000000000000000000000000000000000000000000000000000000000000000000000000000000000000000000000000000000000000000000000000000000000000000000000000000000000000000000000000000000000000000000000000000000000000000000000000000000000000000000000000000000000000000000000000000000000000000000000000000000000000000000000000000000000000000000000000000000000000000000000000000000000000000000000000000000000000000000000000000000000000000000000000000000000000000000000000000000000000000000000000000000000000000000000000000000000000000000000000000000000000000000000000000000000000000000000000000000000000000000000000000000000000000000000000000000000000000000000000000000000000000000000000000000000000000000000000000000000000000000000000000000000000000000000000000000000000000000000000000000000000000000000000000000000000000000000000000000000000000000000000000000000000000000000000000000000000000000000000000000000000000000000000000000000000000000000000000000000000000000000000000000000000000000000000000000000000000000000000000000000000000000000000000000000000000000000000000000000000000000000000000000000000000000000000000000000000000000000000000000000000000000000000000000000000000000000000000000000000000000000000000000000000000000000000000000000000000000000000000000000000000000000000000000000000000000000000000000000000000000000000000000000000000000000000000000000000000000000000000000000000000000000000000000000000000000000000000000000000000000000000000000000000000000000000000160000000000000000000000000000000000000000000000000000000000000000000000000000000000000000000000000000000000000000000000565300000000000000000000000000000000000000000000000000000000000000000000000000535600000000000000000000000000000000000000000000000000000000000000000000000000000056530000000000000000000000000000000000000000000000000000000000000000000000000053560000000000000000000000000000000000000000000000000000000000000000000000000000000000000000000000000000000000000000000000260000000000000000000000000000000000000000000000000000000000000000000000000000000000000000000000000000000000000000000000000000000000000000000000000000000000000000000000000000000000000000000000000000000000000000000000000000000000000000000000000000000000000000000000000000000000000000000000000000000000000000000000000000000000000000000000000000000000000000000000000000000000000000000000000000000000000000000000000000000000000000000000000000000000000000000000000000000000000000000000
#019370:00001323
#019390:000000000000000000000000003300000033000000000000
#0193a0:000000000000003333000000
#0193b0:0000000000330000
#019321:00001323
#019341:000000000000000000000000003300000033000000000000
#019351:000000000000003333000000
#019361:0000000000330000
#020321:13
#020361:0023000000000000
#0203b0:0013230000000000
#0203b0:0013
#020370:0000000000230000
#020321:0000000000132300
#021361:13
#021321:0023000000000000
#0213b0:0013230000000000
#021370:0013
#0213b0:0000000000230000
#021321:0000000000132300
#022321:13
#022361:0023000000000000
#0223b0:0013000000000000
#022390:00230000
#0223b0:0013
#022370:0000000000230000
#022321:0000000000130000
#022341:00000023
#023351:0013000000000000
#023321:0000532300000000
#023380:0013000000000000
#0233b0:0000532300000000
#024370:13
#024320:00230000
#024320:0013
#024370:00000023
#025370:13
#025320:00230000
#0253b0:0000001300230000
#025370:0033
#025321:0000000000130023
#025361:00000033
#027321:0013530000000000
#027371:0000002300000000
#027360:0013530000000000
#0273b0:0000002300000000
#028360:13
#0283b0:00230000
#0283b0:0013
#028360:00000023
#029360:13
#0293b0:00230000
#029320:0000001300230000
#029360:0033
#0293b1:0000000000130023
#029371:00000033
#0303b1:13230000
#030320:00132300
#0303b1:00001323
#0313b1:0013530000000000
#031361:0000002300000000
#031370:0013530000000000
#031320:0000002300000000
#032320:13230000
#032320:00001323
#033320:13230000
#033320:00001323
#0333b1:0013
#033371:00000023
#034321:14240000
#034321:00001424
#035321:14240000
#035321:00001424
#0353a0:0014
#035360:00000024
#038320:0013002300000000
#0383b1:0013002300000000
#040361:13230000
#040321:0053000000000000
#040371:00001323
#0403b1:0000000000530000
#041361:13230000
#041321:0053000000000000
#0413b0:00130000
#0413a0:0000002300000000
#041361:0000001300000000
#041351:0023
#041390:0013
#041380:0000000000230000
#041341:0000000000130000
#041331:00000023
#041370:00000013
#041360:0000000000000023
#043320:0013530000000000
#043360:0000002300000000
#043371:0013530000000000
#0433b1:0000002300000000
#044371:13230000
#0443b1:0053000000000000
#044361:00001323
#044321:0000000000530000
#045371:13230000
#0453b1:0053000000000000
#045320:00130000
#045330:0000002300000000
#045371:0000001300000000
#045381:0023
#045340:0013
#045350:0000000000230000
#045391:0000000000130000
#0453a1:00000023
#045360:00000013
#045370:0000000000000023
#0473b0:0013530000000000
#047370:0000002300000000
#047361:0013530000000000
#047321:0000002300000000
#0483b1:13230000
#0483b1:00001323
#0493b1:13230000
#0493b1:00001323
#049320:0013
#049360:00000023
#0503a0:14240000
#0503a0:00001424
#0513a0:14240000
#0513a0:00001424
#051321:0014
#051361:00000024
#0543b1:13333333333333333300000000000000
#0543a1:00000000000000000033000000000000
#054391:00000000000000000000333300000000
#054381:00000023
#054320:13333333333333333300000000000000
#054330:00000000000000000033000000000000
#054340:00000000000000000000333300000000
#054350:00000023
#055320:0013
#055330:000000000000000000000000003300000000000000000000
#055340:000000000000003300000000
#055350:0000000000330000
#055360:000000000000000000000000000000003333000000000000
#055370:00000033
#055380:000000000000000000000000000000000000003300000000
#055390:000000000000000000000000000000000000000033330000
#0553a0:000000000000000000000000000000000000000000003333
#0563b0:23
#057370:0013000000000000
#057320:0000002300000000
#0573b1:0000001300002300
#057371:00000000000000000053000000000000
#0583b1:13
#058371:0023000000000000
#0583b1:0000132300000000
#058321:0013
#058361:0000000000230000
#059381:0013002300000000
#0593b1:00530000
#061361:0013000000000000
#0613b1:0000002300000000
#061320:0000001300002300
#061360:00000000000000000053000000000000
#062320:13
#062360:0023000000000000
#062320:0000132300000000
#0623b0:0013
#062370:0000000000230000
#063350:0013002300000000
#063320:00530000
#063381:0000001300230000
#0633b1:0053
#064361:13000023
#064321:0000005300000000
#064370:0000001300000000
#0643b0:00000023
#065370:13000023
#0653b0:0000005300000000
#065361:0000001300000000
#065321:00000023
#066361:13000023
#066321:0000005300000000
#066370:0000001300000000
#0663b0:00000023
#067370:00001323
#067380:00000000000000000033003300000000
#0673b0:0000000000330000
#067320:0000000000000013
#068360:00530000000000000000000000000000
#068320:00230000
#069370:0013005300000000
#0693b0:00532300
#069390:00000000005300000000000000000000
#070350:160000000000000000000000000000000000000000000000000000000000000000000000000000000000000000000000000000000000000000000000565300000000000000000000000000000000000000000000000000000000000000000000000000000000000000000000000000000000000000000000000000000000000000000000000000000000000000000000000000000000000000000000000000000000000000000000000000000000000000000000000000000000000000000000000000000000000000000000000000000000000000000000000000000000000000000000000000000000000000000000230000000000000000000000000000000000000000000000000000000000000000000000000000000000000000000000000000000000000000000000000000000000000000000000000000000000000000000000000000000000000000000000000000000000000000000000000000000000000000000000000000000000000000000000000000000000000000000000000000000000000000000000000000000000000000000000000000000000000000000000000000000000000000000000000000000000000000000000000000000000000000000000000000000000000000000000000000000000000000000000000000000000000000000000000000000000000000000000000000000000000000000000000000000000000000000000000000000000000000000000000000000000000000000000000000000000000000000000000000000000000000000000000000000000000000000000000000000000000000000000000000000000000000000000000000000000000000000000000000000000000000000000000000000000000000000000000000000000000000000000000000000000000000000000000000000000000000000000000000000000000000000000000000000000000000000000000000000000000000000000000000000000000000000000000000000000000000000000000000000000000000000000000000000000000000000000000000000000000000000000000000000000000000000000000000000000000000000000000000000000000000000000000000000000000000000000000000000000000000000000000000000000000000000000000000000000000000000000000000000000000000000000000000000000000000000000000000000000000000000000000000000000000000000000000000000000000000000000000000000000000000000000000000000000000000000000000000000000000000000000000000000000000000000000000000000000000000000000000000000000000000000000000000000000000000000000000000000000000000000000000000000000000000000000000000000000000000000000000000000000000000000000000000000000000000000000000000000000000000000000000000000000000000000000000000000000000000000000000000000000000000000000000000000000000000000000000000000000000000000000000000000000000000000000000000000000000000000000000000000000000000000000000000000000000000000000000000000000000000000000000000000000000000000000000000000000000000000000000000000000000000000000000000000000000000000000000000000000000000000000000000000000000000000000000000000000000000000000000000000000000000000000000000000000000000000000000000000000000000000000000000000000000000000000000000000000000000000000000000000000000000000000000000000000000000000000000000000000000000000000000000000000000000000000000000000000000000000000000000000000000000000000000000000000000000000000000000000000000000000000000000000000000000000000000000000000000000000000000000000000000000000000000000000000000000000000000000000000000000000000000000000000000000000000000000000000000000000000000000000000000000000000000000000000000000000000000000000000000000000000000000000000000000000000000000000000000000000000000000000000000000000000000000000000000000000000000000000000000000000000000000000000000000000000000000000000000000000000000000000000000000000000000000000000000000000000000000000000000000000000000000000000000000000000000000000000000000000000000000000000000000000000000000000000000000000000000000000000000000000000000000000000000000000000000000000000000000000000000000000000000000000000000000000000000000000000000000000000000000000000000000000000000000000000000000000000000000000000000000000000000000000000000000000000000000000000000000000000000000000000000000000000000000000000000000000000000000000000000000000000000000000000000000000000000000000000000000000000000000000000
#070370:0000122200000000
#070350:00000000005600000000000000000000
#070370:0012
#070350:0000000000260000
#070350:000000000000000000000000000000000000000000000000000000000000000000000000000000000000000000000000000000000000000000000000000000000000000000000000000000000000000000000000000000000000000000000000000000000000000000000000000000000000000000000000000000000000000000000000000000000000000000000000000000000000000000000000000000000000000000000000000000000000000000000000000000000000000000000000000000000000000000000000000000000000000000000000000000000000000000000000000000000000000000000000000000000000000000000000000000000000000000000000000000000000000000000000000000000000000000000000000000000000000000000000000000000000000000000000000000000000000000000000000000000000000000000000000000000000000000000000000000000000000000000000000000000000000000000000000000000000000000000000000000000000000000000000000000000000000000000000000000000000000000000000000000000000000000000000000000000000000000000000000000000000000000000000000000000000000000000000000000000000000000000000000000000000000000000000000000000000000000000000000000000000000000000000000000000000000000000000000000000000000000000000000000000000000000000000000000000000000000000000000000000000000000000000000000000000000000000000000000000000000000000000000000000000000000000000000000000000000000000000000000000000000000000000000000000000000000000000000000000000000000000000000000000000000000000000000000000000000000000000000000000000000000000000000000000000000000000000000000000000000000000000000000000000000000000000000000000000000000000000000000000000000000000000000000000000000000000000000000000000000000000000000000000000000000000000000000000000000000000000000000000000000000000000000000000000000000000000000000000000000000000000000000000000000000000000000000000000000000000000000000000000000000000000000000000000000000000000000000000000000000000000000000000000000000000000000000000000000000000000000000000000000000000000000000000000000000000000000000000000000000000000000000000000000000000000000000000000000000000000000000000000000000000000000000000000000000000000000000000000000000000000000000000000000000000000000000000000000000000000000000000000000000000000000000000000000000000000000000000000000000000000000000000000000000000000000000000000000000000000000000000000000000000000000000000000000000000000000000000000000000000000000000000000000000000000000000000000000000000000000000000000000000000000000000000000000000000000000000000000000000000000000000000000000000000000000000000000000000000000000000000000000000000000000000000000000000000000000000000000000000000000000000000000000000000000000000000000000000000000000000000000000000000000000000000000000000000000000000000000000000000000000000000000000000000000000000000000000000000000000000000000000000000000000000000000000000000000000000000000000000000000000000000000000000000000000000000000000000000000000000000000000000000000000000000000000000000000000000000000000000000000160000000000000000000000000000000000000000000000000000000000000000000000000000000000000000000000000000000000000000000000565300000000000000000000000000000000000000000000000000000000000000000000000000535600000000000000000000000000000000000000000000000000000000000000000000000000000056530000000000000000000000000000000000000000000000000000000000000000000000000053560000000000000000000000000000000000000000000000000000000000000000000000000000000000000000000000000000000000000000000000260000000000000000000000000000000000000000000000000000000000000000000000000000000000000000000000000000000000000000000000000000000000000000000000000000000000000000000000000000000000000000000000000000000000000000000000000000000000000000000000000000000000000000000000000000000000000000000000000000000000000000000000000000000000000000000000000000000000000000000000000000000000000000000000000000000000000000000000000000000000000000000000000000000000000000000000000000000000000000000000
#071360:00001323
#071340:000000000000000000000000003300000033000000000000
#071330:000000000000003333000000
#071320:0000000000330000
#0713b1:00001323
#071391:000000000000000000000000003300000033000000000000
#071381:000000000000003333000000
#071371:0000000000330000
