This file was generated by Ched 2.6.2.0.
#TITLE ""
#ARTIST ""
#DESIGNER ""
#DIFFICULTY 0
#PLAYLEVEL
#SONGID ""
#WAVE ""
#WAVEOFFSET 0
#JACKET ""
#REQUEST "ticks_per_beat 480"
#00002: 4
#BPM01: 176
#00008: 01
#TIL00: ""
#HISPEED 00
#MEASUREHS 00
#0001a:14140000
#00014:14140000
#00112:14140000
#00118:14140000
#0021a:14140000
#00214:14140000
#00312:14140000
#00318:14140000
#0051a:1414
#00514:00140000
#00612:14
#00614:0014
#00618:00140000
#0061a:00000014
#00912:1414
#00918:00140000
#0101a:14
#01014:00140000
#01018:0014
#01012:00000014
#0161a:14
#01612:0014
#01618:0014
#0171a:14
#01712:0014
#01714:14
#01718:0014
#0201a:00140000
#02012:00000014
#02010:41
#02118:00140000
#02114:00000014
#0221a:00140000
#02212:00000014
#0241a:1414
#02414:00140014
#0361a:14141414
#03714:14141414
#00712:14
#00714:0014
#00718:00140000
#00713:0000000000343400
#01118:14
#01112:00140000
#0111a:0014
#01114:00000014
#01218:16
#01215:0000001600000000
#01212:00000016
#01210:41
#01318:16
#01315:0000001600000000
#01312:00000016
#01418:16
#01415:0000001600000000
#01412:00000016
#0151a:1414
#01514:00140014
#0181a:1414
#01812:00140014
#01918:14140000
#01914:0014001400000000
#01913:00000024
#01919:00000024
#0261a:14
#02614:14
#02612:0014
#02618:0014
#0271a:1414
#02714:00140000
#02812:1414
#02818:00140014
#02810:41
#03012:14
#03018:14
#0301a:0014
#03014:0014
#03112:1414
#03118:00140000
#03812:14
#03818:14
#0401a:14
#04014:00140000
#04018:0014
#04012:00000014
#04010:41
#0421a:14
#04214:14
#04212:0014
#04218:0014
#0431a:1414
#04314:00140000
#04612:14
#04618:14
#0461a:0014
#04614:0014
#04712:1414
#04718:00140000
#04412:14
#04418:00140000
#04414:0014
#0441a:00000014
#05212:14141414
#05318:14141414
#0541a:14
#05414:14
#05512:14
#05518:14
#05712:1414
#05718:00140000
#0581a:14
#05818:0014
#05814:00140000
#05812:00000014
#05810:41
#0611a:1414
#06114:00140000
#06212:14
#06218:00140000
#06214:0014
#0621a:00000014
#06812:14
#0681a:0014
#06814:0014
#06912:14
#0691a:0014
#06918:14
#06914:0014
#06314:14
#0631a:00140000
#06312:0014
#06318:00000014
#06412:16
#06415:0000001600000000
#06418:00000016
#06512:16
#06515:0000001600000000
#06518:00000016
#06612:16
#06615:0000001600000000
#06618:00000016
#06712:1414
#06718:00140014
#07012:1414
#0701a:00140014
#07114:14140000
#07118:0014001400000000
#07119:00000024
#07113:00000024
#0591a:14
#05914:00140000
#05918:0014
#05919:0000000000343400
#02318:0000001600000000
#03219:00000014
#03313:00000014
#03419:00000014
#03513:00000014
#04813:00000014
#0481f:11
#04919:00000014
#05013:00000014
#05119:00000014
#00414:00240000
#0041a:00240000
#00410:00410000
#00812:00240000
#05614:00240000
#0561a:00240000
#0561f:00210000
#0601a:00240000
#04118:00340000
#04514:00340000
#00358:00540000
#00352:00540000
#00454:00140000
#0045a:00140000
#00754:0054
#00852:00140000
#01959:00000014
#01953:00000014
#0205a:00140000
#02052:00000014
#02158:00140000
#02154:00000014
#0225a:00140000
#02252:00000014
#03852:54
#03858:54
#0545a:64
#05454:64
#05552:54
#05558:54
#05654:00140000
#0565a:00140000
#07159:00000014
#07153:00000014
#02358:0000001600000000
#03259:00000014
#03353:00000014
#03459:00000014
#03553:00000014
#04853:00000014
#04959:00000014
#05053:00000014
#05159:00000014
#05958:0064
#0605a:00140000
#003320:00140000
#004340:24
#003381:00140000
#0043a1:24
#007341:0014
#007331:0000000000343400
#007321:0000000000000024
#0253a1:14342400
#029321:14342400
#032391:1400003424000000
#033331:1400003424000000
#034391:1400003424000000
#035331:1400003424000000
#038321:14
#039341:24
#038380:14
#0393a0:24
#041380:14340000
#0413a0:0024
#045340:14340000
#045320:0024
#048330:1400003424000000
#049390:1400003424000000
#050330:1400003424000000
#051390:1400003424000000
#0543a0:14
#054380:00000024
#054341:14
#054321:00000024
#055321:14
#056341:24
#055380:14
#0563a0:24
#059380:0014
#059390:0000000000343400
#0593a0:0000000000000024
