This file was generated by Ched 2.6.2.0.
#TITLE ""
#ARTIST ""
#DESIGNER ""
#DIFFICULTY 0
#PLAYLEVEL
#SONGID ""
#WAVE ""
#WAVEOFFSET 0
#JACKET ""
#REQUEST "ticks_per_beat 480"
#00002: 4
#BPM01: 194
#00008: 01
#TIL00: ""
#HISPEED 00
#MEASUREHS 00
#00819:00140000
#00810:00410000
#01213:00140000
#01319:00140000
#03014:14
#03114:14
#03113:0000000000000014
#03913:0000000000000014
#03918:14
#0391f:0000000000000011
#04019:0000000000000014
#04113:0000000000000014
#04219:0000000000000014
#04313:0000000000000014
#04419:0000000000000014
#04818:2616
#0481f:21
#04912:1616
#05018:16
#05012:0016
#05010:41
#05118:16
#00913:00140000
#02012:00140000
#02118:00140000
#02212:00140000
#01714:00140000
#02818:14
#02918:14
#00019:14
#00113:14
#00219:14
#00313:14
#01019:00140000
#0161a:00140000
#01610:00410000
#01413:00140000
#0181a:00140000
#02513:14
#02619:14
#02610:41
#02713:14
#03818:14
#03614:14
#03714:14
#03319:14
#03413:14
#03410:41
#03519:14
#05212:2616
#05318:1616
#05412:16
#05418:0016
#05512:16
#05618:2616
#05712:1616
#05818:16
#05812:0016
#05918:16
#05912:0016
#06113:00000014
#07019:00140000
#07013:00000014
#02319:0000000000000014
#06210:00000041
#004380:14
#005380:24
#006340:14
#007340:24
#045330:0000000000000014
#047330:0024
#060380:1600003600000026
#062390:00000014
#065390:00000024
#066330:00000014
#069330:00000024
#071340:0000000000000014
#072340:0000000000000024
#073380:0000000000000014
#074380:0000000000000024
#075340:0000000000000014
#076340:0000000000000024
#077380:0000000000000014
#078380:0000000000000024
