This file was generated by Ched 2.6.4.0.
#TITLE ""
#ARTIST ""
#DESIGNER ""
#DIFFICULTY 0
#PLAYLEVEL
#SONGID ""
#WAVE ""
#WAVEOFFSET 0
#JACKET ""
#REQUEST "ticks_per_beat 480"
#00002: 4
#BPM01: 194
#00008: 01
#TIL00: ""
#HISPEED 00
#MEASUREHS 00
#02412:0013000000000000
#0241b:00130000
#02415:0000001300000000
#02417:00001313
#02416:0000000000000013
#02717:00130000
#02712:13131300
#02714:0000000000130000
#02716:00000013
#02516:0013000000000000
#0251b:00130013
#02515:0000001300001300
#02518:0013
#02512:0000000000130000
#03912:0013
#03915:0000000000130000
#03918:00000013
#03916:0000000000000013
#0391b:0000000013000023
#03919:13130000
#03914:13130000
#0391f:0000000000000011
#04018:0013000013000013
#04015:00130013
#04016:0000001300000000
#04017:0000000000130000
#04012:0000000013000013
#0401b:00130013
#04412:0000000000130013
#04418:1300000000000023
#0451b:0000000000000013
#04515:13
#04617:00001300000000000013000000000000
#04612:00001300000000000013000000000000
#04616:00130000
#0461b:00130000
#04719:0013131315000000
#04719:0013131315000000
#04712:00001513
#0471b:00000013
#04714:0013131300000000
#04812:0023001300000000
#0481b:0000000000230013
#04819:1313
#04814:1313
#04816:0000000000000013
#0481f:21
#04918:0013000000000000
#0491b:0000001300130000
#04914:00000013
#04912:0000000000000013
#04915:0000132600000000
#04917:0000000000000013
#04919:00000013
#04916:0000000000130000
#05017:13130000
#0501b:0013001300000000
#05018:0000000013000013
#05012:00000013
#05015:00000000000000130000000000001300
#05010:41
#05214:1313
#05219:1313
#0521b:0023001300000000
#05212:0000000000230013
#05217:0000000000000013
#05415:0000001313000000
#05412:1300130000000013
#05416:0013000000000000
#05417:00000013
#0541b:0000001313000000
#05516:13140000
#0551b:0000000000001313
#05512:0013001400001300
#05518:0000000013130000
#05515:00000000000000000013001300000000
#0551a:0000001400000000
#00818:0013001300001300
#00815:0000130000130013
#00812:0013
#0081b:0013
#00810:00410000
#00917:0013130000000000
#00916:0000000013130000
#00912:0000000000000023
#00918:0000000000000023
#0411b:0013
#04118:0016000000130000
#04115:00000013
#04117:0000000000000013
#04112:0000160013000023
#04215:0013000013000013
#04218:00130013
#04217:0000001300000000
#04216:0000000000130000
#0421b:0000000013000013
#04212:00130013
#04313:0000001400140000
#04319:0000001400140000
#0431b:0000000000000013
#04312:0016000000000000
#04318:00160000
#04316:0000000000000023
#01217:0013001300000000
#01214:00130000
#01212:0013
#01216:0000000000130013
#01218:00000013
#0121a:0013
#01317:0013130000000023
#01316:0000000013130000
#01312:0000000000000023
#0141b:0013000000000000
#01418:00130000
#01415:0000001300000000
#01412:0013
#01417:00000000000000000013000000000000
#01414:0000000000130000
#01512:0013000013000024
#01514:00130000
#01516:0000001300001300
#01517:0013
#01519:0000000000130000
#0151b:0000001300001300
#01518:0013000000000024
#01015:0013001300001300
#01018:0000130000130013
#0101b:0013
#01012:0013
#01112:0013000000000000
#0111b:0000000000130023
#01116:0000000000000023
#01618:0013000000000013
#01615:00130013
#01617:0000001300130000
#0161a:0013
#01612:0013000013000013
#01610:00410000
#01712:0000130000130000
#01716:0013
#0171b:0013000000000000
#01717:0000130000130000
#01714:0000000000000024
#0171a:0000000000000024
#02018:0013000000000013
#02015:00130013
#02017:0000001300130000
#0201a:0013
#02012:0013000013000013
#02112:0000130000130000
#02116:0013
#0211b:0013000000000000
#02117:0000130000130000
#02114:0000000000000024
#0211a:0000000000000024
#0181b:0013000013000000
#01818:00130013
#01816:0000001300130000
#01813:0013
#01815:0013000000000013
#0191b:0013000000000000
#01912:0000000000130024
#01918:0000000000000024
#02212:0013000000001300
#02215:00130000
#02218:0000001300000000
#0221b:0013
#02216:00000000000000000013000000000000
#02219:0000000000130000
#02217:00000013
#02316:0000130000000024
#0231b:00130000
#02312:00000014
#0231a:00000014
#00715:00000013
#0071b:00330000000000000033000000002300
#00712:0000000000000023
#0071a:00003300000000000000003300000000
#00719:00000033000000000000330000000000
#00713:00000000003300000000000000000000
#00714:00000000000033330000000000000000
#02916:00130000
#0291b:13131300
#02919:0000000000130000
#02917:00000013
#05915:0000131300000000
#05918:0000000013131300
#05912:00001313
#0591b:0013130000000000
#06018:1313000000001300
#0601b:0000131300000000
#06017:0013
#06012:1300001300001300
#06015:0000130000130013
#06112:0013000000001300
#06119:00000013
#0611b:0000001300000013
#06118:00000013000000001300000000000000
#06115:0000130000130000
#06212:0013000000001300
#06216:0000001300000013
#06214:13130000
#06219:13130000
#06217:0013000000001300
#0621b:0000001300000013
#06210:00000041
#06312:0013000000000000
#0631b:0000000000000000000000000000000000000000000000000000000000130000
#0631a:00000000000000000000000000002313
#06319:0000000000000000000000000000000000000000000000000000000000000013
#0651b:0013000000130000001300000013000000130000000000000000000013000000
#06512:0013000000130000
#06515:00131300
#0651a:13131313131313131313000000000000
#06519:0000001300000013000000130000001300000013000000000000000000000000
#06516:0000000000000013
#02612:13131313
#02610:41
#0281b:13131313
#03012:13131313
#03115:1313
#03118:00130000
#0311a:00000014
#03112:00000014
#03116:0000000000000024
#0321b:0013000000000000
#03212:00130000
#03218:0000001300000000
#03216:00001313
#03217:0000000000000013
#05316:0000000000000013
#05315:0013002600000000
#05318:00130000
#05312:0000001300000000
#00012:12
#0001c:00120000
#00016:0012
#0001a:0000000000120000
#00014:0000000000000012
#00018:12
#00118:12
#0011a:00120000
#00116:0012
#00112:00000012
#0041c:00120000
#00416:0012
#0041a:0000000000120000
#00414:0000000000000012
#00418:12
#00518:12
#0051a:00120000
#00516:0012
#00512:00000012
#00212:12
#0021c:00120000
#00216:0012
#0021a:0000000000120000
#00214:0000000000000012
#00218:12
#00318:12
#00315:0000003200000000
#00314:0032
#00313:0000000000323200
#00312:0000000000000032
#00612:12
#0061c:00120000
#00616:0012
#0061a:0000000000120000
#00614:0000000000000012
#00618:12
#0341b:1313
#03418:00130013
#03410:41
#0351b:13130000
#03518:0000001300000000
#03516:00131300
#03514:0000000000130000
#03512:00000013
#03519:0000000000130000
#03517:00000013
#03612:1313
#03615:00130013
#03712:13130000
#03715:0000001300000000
#03717:00131300
#03719:0000000000130000
#0371b:00000013
#03714:0000000000130000
#03716:00000013
#0381b:1313
#03818:00130013
#0511b:00000000001300000000000000000000
#05118:0013000000000000
#05115:0013
#05112:0000000000000013
#05612:0023001300000013
#05617:0000000000000013
#0561b:0000000000230000
#0571b:0013002300130000
#05714:00130013
#05712:0000002300000013
#05717:0000000000000013
#05719:00130013
#05716:0000000000130000
#05817:13130000
#0581b:0013001300000000
#05818:0000000013000013
#05812:00000013
#05815:0000000013000013
#03317:0013000000000000
#03312:00130013
#03318:0000001300001300
#03315:0013
#0331b:0000000000130000
#0641a:13131313131313131313131313131313
#0641b:0013000000130000001300000013000000130000001300000013000000130000
#06419:0000001300000013000000130000001300000013000000130000001300000013
#0661b:00130013
#06617:0000000000000013
#06612:0013000000130013
#06616:00000013
#06615:0000001300000000
#06618:0013
#0671b:0013000000000000
#06712:0000000000000000000000000000000000000000000000000000000000130000
#06713:00000000000000000000000000002313
#06714:0000000000000000000000000000000000000000000000000000000000000013
#0691b:0013000000130000
#06918:00131300
#06913:13131313131313131313000000000000
#06912:0013000000130000001300000013000000130000000000000000000013000000
#06914:0000001300000013000000130000001300000013000000000000000000000000
#06917:0000000000000013
#06813:13131313131313131313131313131313
#06812:0013000000130000001300000013000000130000001300000013000000130000
#06814:0000001300000013000000130000001300000013000000130000001300000013
#07012:0000130000130013
#0701b:0013000000130013
#07016:00000014
#07018:00000000000013000013000000000000
#07015:0013
#07116:00120000
#07118:0000000012000012
#07112:0000000000000012
#07815:00000000000000000032000000001200
#07819:0000000000000012
#0781a:00000000000000000032000000000000
#0721c:0012000012000000
#07216:0000000000120000
#0721a:00000012
#07214:0000000000000012
#0731a:0012000000000000
#07316:0000001200000000
#07312:0000000000120012
#07318:0000000000000012
#0741c:0012000000000000
#0741a:0012
#07414:0000000000120000
#07418:00000012
#07412:0000000000000012
#0761c:0012000000000000
#0761b:0012
#07615:0000000000120000
#07619:00000012
#07613:0000000000000012
#0771a:0012000000000000
#07716:0000001200000000
#07712:0000000000120000
#07518:0000000000000022
#07515:00320000
#07514:0000003200000000
#07513:0000000032320000
#07512:00000032
#03956:0000000000000053
#04157:0000000000000063
#04458:23
#04452:0000000000000053
#0435b:0000000000000063
#04555:23
#00855:0000000000000013
#01256:0000000000000013
#01058:0000000000000013
#01658:0000000000000013
#01652:0000000000000053
#01757:00530000
#02058:0000000000000013
#02052:0000000000000053
#02157:00530000
#01855:0000000000000013
#02356:00230000
#0235b:00230000
#02757:00630000
#02956:00530000
#06252:0023000000000000
#06254:53630000
#06259:63530000
#06257:0023000000000000
#06256:0000002300000000
#0625b:0000002300000000
#0615b:0000000000000023
#06159:00000053
#0605b:0000005300000000
#06057:0023
#04856:0000000000000063
#04852:0033000000000000
#0485b:0000000000430000
#05058:0063
#05055:0000000000000063
#05455:0053
#05257:0000000000000053
#0525b:0043000000000000
#05252:0000000000330000
#0355b:00530000
#03558:0000002300000000
#03752:00630000
#03755:0000002300000000
#05158:0063000000000000
#0515b:00000000002300000000000000000000
#05858:0063
#05855:0000000000000063
#05652:0033000000000063
#0565b:0000000000430000
#05952:00000013
#0635a:00000000000000000000000000005363
#0635b:0000000000000000000000000000000000000000000000000000000000230000
#06359:0000000000000000000000000000000000000000000000000000000000000023
#06352:0000000000000033
#0645a:63636363636363636363636363636363
#0645b:0023000000230000002300000023000000230000002300000023000000230000
#06459:0000002300000023000000230000002300000023000000230000002300000023
#0655a:63636363636363636363000000000000
#0655b:0023000000230000002300000023000000230000000000000000000043000000
#06559:0000002300000023000000230000002300000023000000000000000000000000
#06752:0000000000000000000000000000000000000000000000000000000000230000
#06753:00000000000000000000000000006353
#06754:0000000000000000000000000000000000000000000000000000000000000023
#0675b:0000000000000043
#06853:53535353535353535353535353535353
#06852:0023000000230000002300000023000000230000002300000023000000230000
#06854:0000002300000023000000230000002300000023000000230000002300000023
#06953:53535353535353535353000000000000
#06952:0023000000230000002300000023000000230000000000000000000033000000
#06954:0000002300000023000000230000002300000023000000000000000000000000
#04656:00530000
#04652:00000000000000000023000000000000
#0465b:00530000
#04657:00000000000000000023000000000000
#0095b:0000000000130000
#0135b:0000000000130000
#04052:0000000000000033
#0425b:0000000000000043
#04759:0045
#04759:0045
#04752:0035
#04955:0000003600000000
#05355:0000004600000000
#05752:0000003300000000
#0575b:0000004300000000
#07156:00120000
#07158:0012
#003360:00120000
#003350:0000003200000000
#003340:0032
#003330:0000000000323200
#003320:0000000000000032
#004320:22
#0073b0:13330000000000000000000000000000
#0073a0:0033000000000000
#007390:00000033000000000000000000000000
#007380:00230000
#007321:00130000
#007331:00000000003300000000000000000000
#007341:00000000000033330000000000000000
#007351:0023
#0073b0:00000000000000001333000000000000
#007390:0000000000330000
#0073a0:00000000000000000000003300000000
#007380:00000023
#009320:0013230000000000
#0093b0:0000000013230000
#0113b0:0013230000000000
#011351:0000132300000000
#011380:0000001323000000
#011321:0000000013230000
#013321:0013230000000000
#0133b1:0000000013230000
#014361:0000000000001323
#0143b0:0000000000001323
#016320:0000000000000013
#017360:0023000000000000
#017370:00130000
#0173b0:0023
#019320:0013230000000000
#019381:0000132300000000
#019350:0000001323000000
#0193b1:0000000013230000
#020321:0000000000000013
#021361:0023000000000000
#021371:00130000
#0213b1:0023
#022361:0000000000000013
#023361:00330000
#023321:0023
#0223b0:0000000000000013
#0233b0:00330000
#023370:0023
#024320:00001323
#0243b0:0000000000000013
#0253b0:0023000000000000
#027370:00130000
#0273b0:00003323
#029360:00130000
#029320:00003323
#0323b0:00001323
#032320:0000000000000013
#033320:0023000000000000
#034350:13230000
#034350:00001323
#0353b0:00132300
#035380:0000005300000000
#036380:13230000
#036380:00001323
#037320:00132300
#037350:0000005300000000
#038350:13230000
#038350:00001323
#039360:0000000000000013
#040320:0023000000000000
#041370:0000000000000013
#0423b0:0023000000000000
#0433b0:0000000000000013
#044380:53
#0443b0:0023000000000000
#044361:0013230000000000
#044390:0000132300000000
#044341:0000001323000000
#044370:0000000013230000
#044320:0000000000000013
#045350:53
#045320:0023000000000000
#045381:0013230000000000
#045340:0000132300000000
#045391:0000001323000000
#045350:0000000013230000
#0453a1:0000000000132300
#045360:0000000000001323
#046360:0000130000000023
#046320:00000000000000000053000000000000
#0463b1:0000130000000023
#046371:00000000000000000053000000000000
#048361:0000000000000013
#049321:0023000000000000
#050321:13330000
#050351:0033002300000000
#050381:0013
#0503b1:00000023
#050351:0000000000000013
#051321:0023000000000000
#051380:0013000023000000
#0513b0:00000000005300000000000000000000
#052370:0000000000000013
#0533b0:0023000000000000
#0533b0:0000000000000013
#054380:33230000
#0543b0:0033000000000000
#054350:0013
#054320:00000023
#054370:0000000000000013
#0553b0:33
#055370:0023000000000000
#055360:0000000000000013
#056340:23
#056391:13
#056371:0023000000000000
#056371:0000001300000000
#056391:0023
#056340:0013
#056360:0000000000230000
#056320:0000000000000013
#057360:0023000000000000
#058320:13330000
#058350:0033002300000000
#058380:0013
#0583b0:00000023
#058350:0000000000000013
#059320:0023000000000000
#0603b0:0000001300230000
#060370:0053
#061390:00000013
#0613b0:0000000000000053
#062390:53532300
#062370:0053000000000000
#0623b0:0000005300000000
#062341:13532300
#062321:0053000000000000
#062361:0000005300000000
#063381:0013000000000000
#0633b1:00230000
#063350:00130000
#063320:0000002300000000
#0633b1:0000001300000000
#063381:0023
#063320:0013
#063350:0000000000230000
#063381:0000000000130000
#0633b1:00000023
#063350:00000013
#063320:0000000000000023
#0633a1:00000000000000000000000000001353
#0633b1:0000000000000000000000000000000000000000000000000000000000530000
#063391:0000000000000000000000000000000000000000000000000000000000000053
#0643a1:53535353535353535353535353535353
#0643b1:0053000000530000005300000053000000530000005300000053000000530000
#064391:0000005300000053000000530000005300000053000000530000005300000053
#0653a1:53535353535353535353230000000000
#0653b1:0053000000530000005300000053000000530000000000000000000000000000
#065391:0000005300000053000000530000005300000053000000000000000000000000
#064350:0013003300330023
#064320:00333333
#067351:0013000000000000
#067321:00230000
#067380:00130000
#0673b0:0000002300000000
#067321:0000001300000000
#067351:0023
#0673b0:0013
#067380:0000000000230000
#067351:0000000000130000
#067321:00000023
#067380:00000013
#0673b0:0000000000000023
#067331:00000000000000000000000000001353
#067321:0000000000000000000000000000000000000000000000000000000000530000
#067341:0000000000000000000000000000000000000000000000000000000000000053
#068331:53535353535353535353535353535353
#068321:0053000000530000005300000053000000530000005300000053000000530000
#068341:0000005300000053000000530000005300000053000000530000005300000053
#069331:53535353535353535353230000000000
#069321:0053000000530000005300000053000000530000000000000000000000000000
#069341:0000005300000053000000530000005300000053000000000000000000000000
#068380:0013003300330023
#0683b0:00333333
#075361:0012000000000000
#075351:00320000
#075341:0000003200000000
#075331:0000000032320000
#075321:0000000000003222
#077351:0000000000000012
#078351:0022000000000000
#077390:0000000000000012
#078390:0022000000000000
#078380:0012
#0783a0:00000000000000000032000000000000
#0783b0:0000000000220000
#078331:0012
#078351:00000000000000000032000000000000
#078361:0000000000220000
