This file was generated by Ched 2.6.2.0.
#TITLE ""
#ARTIST ""
#DESIGNER ""
#DIFFICULTY 0
#PLAYLEVEL
#SONGID ""
#WAVE ""
#WAVEOFFSET 0
#JACKET ""
#REQUEST "ticks_per_beat 480"
#00002: 4
#BPM01: 194
#00008: 01
#TIL00: ""
#HISPEED 00
#MEASUREHS 00
#0241b:0013000000000000
#02415:00130000
#02418:0000001300000000
#02515:00131300
#02518:0000001300000000
#0251b:0000000000130000
#02512:00000013
#03915:00130013
#0391b:0013
#0391b:0013
#03912:13
#0391f:0000000000000011
#04015:00131313
#04018:0000001300130013
#04012:0000000000000013
#0401b:00000013
#04618:0013000000000013
#04612:0013000000000013
#04818:1300001300230000
#04815:0023000013000013
#0481f:21
#0491b:0000130000130000
#04915:0000002300001300
#04918:0000000000000013
#05012:13130000
#05018:0013001300000013
#05015:0013
#05010:41
#00812:00130000
#00818:0000001300000000
#0081b:0000000000130000
#00815:00001313
#00810:00410000
#01218:00130013
#01215:0000001300130000
#0121b:0013
#01418:00131300
#01415:0000001300001313
#01412:0013
#0141b:0000000000001313
#01512:0013000000000000
#01517:00130000
#01514:0000001300000000
#01519:0013
#01516:0000000000130000
#0151b:00000013
#01015:00130013
#01018:0000001300130000
#01012:0013
#02318:00000013
#02315:0000130013000023
#05915:0000001300000000
#0591b:0013
#05918:00130013
#05912:0000000000130000
#06015:0013000000001300
#06012:13
#06018:00130000
#06212:0000000000001313
#06218:0000000000001313
#06210:00000041
#03018:13130000
#03015:00001313
#0311b:13130000
#03112:00001313
#03118:0000000000000023
#0001b:13
#00012:00130000
#00018:0013
#00015:1300000000130013
#0011b:00130000
#00112:0013
#00118:00000013
#05612:0000001300000000
#05615:1300000000230013
#05618:0023000013000000
#0561b:0000000000000013
#0571b:0000002300130000
#05712:0000000000000013
#05715:0000130000130000
#05718:0000000000000013
#0581b:13130000
#05815:0013001300000013
#05818:0013
#0661b:0000130000001313
#06615:0000001300001313
#06618:0013
#06612:0000000000130000
#07113:00141400
#0711b:0000000000000013
#07115:0000000000000013
#00212:13
#0021b:00130000
#00215:0013
#00218:1300000000130013
#00312:00130000
#0031b:0013
#00315:00000013
#0041b:13
#00412:0000130000000013
#00418:0000000013000013
#00415:1300000000130000
#0051b:00130000
#00512:0013
#00518:00000013
#00612:13
#0061b:00130000
#00615:0000000013000013
#00618:1300000000130000
#00915:0000130000130000
#00918:0013
#01118:0000130000130000
#01112:0000001300000000
#01115:0013
#01315:0000000000130000
#01318:00000013
#0161b:00130000
#01615:0000001300000000
#01612:0000000000130000
#01618:00001313
#01610:00410000
#02015:00130013
#02018:0000001300130000
#02012:0013
#02215:00131300
#02218:0000001300001300
#0221b:0013
#02212:00000013
#01818:00130013
#01815:0000001300130000
#0181b:0013
#01718:0000130000130000
#01715:0013
#01915:0000130000130000
#0191b:0000001300000000
#01918:0013
#02118:0000000000130000
#02115:00000013
#02618:13131313
#02610:41
#02718:13000013
#02715:0000000000130000
#02815:13131313
#02915:13000013
#02918:0000000000130000
#03212:0013000000000000
#03218:00130000
#03215:0000001300000000
#03318:00131300
#03315:0000001300000000
#03312:0000000000130000
#0331b:00000013
#03812:13
#03815:00130000
#03818:00000013
#0381b:0013
#03412:13131313
#03410:41
#03512:13130000
#03515:00001313
#03518:0000000000130000
#0361b:13131313
#0371b:13130000
#03718:00001313
#03715:0000000000130000
#04118:00000013
#04112:0013
#04112:0013
#04115:0000000000130000
#04215:0000001300130013
#04218:00131313
#0421b:0000000000000013
#04212:00000013
#04416:00130000
#04419:0000001300000000
#04414:0013
#04417:0000000000130000
#04517:00130000
#04514:0000001300000000
#04519:0013
#04516:0000000000130000
#0451b:00000013
#04512:0000000000000013
#04518:0000000000000013
#04715:00000013
#0541b:13
#05412:0013000000000013
#05418:00131300
#05415:0000001300000000
#05315:0000000000000013
#05312:00130000
#05318:0000002300000000
#05518:13
#05515:0013001300000000
#0551b:0000130000000013
#06118:00000013
#0631b:0013000000000000
#06315:00130013
#06318:0000001300130000
#06312:0013
#0631a:0000000000000024
#06417:00000000000000000000000000140000
#06712:0013000000000024
#06718:00130013
#06715:0000001300130000
#0671b:0013
#06815:00000000000000000000000000140000
#07012:00130000
#07018:0000001300000013
#07015:00001313
#0701b:0000000000130000
#07615:0000001300000000
#0761b:0013000013000000
#07618:00000013
#07612:0000000000000013
#07715:0013000000000000
#0771b:0000001300000000
#07712:0000000000130000
#07718:0000000000130013
#07815:0013000013000000
#0781b:0000001300000000
#07818:0000000000000013
#07812:00000013
#07212:0013000000000000
#07218:0000001300000013
#07215:00001313
#0731b:0013000000000000
#07312:0000001300000013
#07318:0000000000130013
#0741b:0013000000000000
#07415:0000001300000013
#07418:00001313
#07512:0013000000000023
#0751b:0000001300000000
#07515:0000000000130000
#05118:0013000000000013
#05215:1300001300230000
#05218:0023000013000013
#00718:00333333000000000000000000000000
#00715:00000000000000333333000000000000
#04855:0013000000000063
#04858:0000000000130000
#05055:0053
#05858:0063
#05855:0000000000000063
#05655:0000000000130053
#0565b:0000000000000053
#05658:0013000000000000
#05958:00000013
#04652:0000000000000053
#04658:0000000000000053
#05458:0063
#05555:0000005300000000
#06158:00000053
#0635a:0000000000000054
#06457:00000000000000000000000000240000
#06855:00000000000000000000000000240000
#06752:0000000000000064
#01158:0000000000130000
#01955:0000000000130000
#05158:0063000000000000
#04755:0013
#0475b:0013
#04955:0000001300000000
#05258:0013000000000053
#05255:0000000000130000
#05358:0000001300000000
#0575b:0000001300000000
#007380:13333333000000000000000000000000
#0073b0:00230000
#007350:00000000000013333333000000000000
#007320:0000000000230000
#007380:0000000000000013
#008380:0023000000000000
#008380:0000000000000013
#009380:0023000000000000
#0093b0:0000000000000013
#0103b0:0023000000000000
#0103b0:0000000000000013
#0113b0:0023000000000000
#011320:0000000000000013
#012320:0023000000000000
#012350:0000000000000013
#013350:0023000000000000
#0133b0:00132300
#013350:0000000000000013
#014350:0023000000000000
#015350:0000000000000013
#016350:0023000000000000
#016350:0000000000000013
#017350:0023000000000000
#017320:0000000000000013
#018320:0023000000000000
#018320:0000000000000013
#019320:0023000000000000
#0193b0:0000000000000013
#0203b0:0023000000000000
#020380:0000000000000013
#021380:0023000000000000
#021320:00132300
#021380:0000000000000013
#022380:0023000000000000
#022320:0000000000000013
#023320:0023000000000000
#022381:0000000000000013
#023381:0023000000000000
#024321:00001323
#024381:0000000000000013
#025381:0023000000000000
#027381:00132300
#029351:00132300
#0323b1:00001323
#032351:0000000000000013
#033351:0023000000000000
#039381:0000000000000013
#0403b1:0023000000000000
#041351:0000000000000013
#042321:0023000000000000
#043341:0000001300230000
#043390:0000001300230000
#0433b0:0000000000000013
#0443b0:0023000000000000
#044320:0000000000000013
#045320:0023000000000000
#046380:0000130000000033
#0473b0:0023
#046321:0000130000000033
#047351:0023
#048351:0000000000000013
#049321:0023000000000000
#050351:0013
#050321:00000023
#051381:0013000000000000
#0513b1:0000002300000000
#052381:0000000000000013
#0533b1:0023000000000000
#054381:0013
#0543b1:00000023
#055351:0000001300000000
#055321:0000000000230000
#056351:0000000000000013
#057321:0023000000000000
#0563b0:0000000000000013
#057380:0023000000000000
#058380:0013
#0583b0:00000023
#058350:0000000000000013
#059320:0023000000000000
#0603b0:0000001300230000
#060350:0000000000000013
#061350:0023000000000000
#061380:00000013
#0623b0:5323
#062351:1323
#0633a1:0000000000000014
#064371:00000000000000000000000000540000
#0653a1:00000024
#065351:0000000000000013
#066351:0023000000000000
#067321:0000000000000014
#068351:00000000000000000000000000540000
#069321:00000024
#069381:0000000000000013
#070381:0023000000000000
