This file was generated by Ched 2.6.2.0.
#TITLE ""
#ARTIST ""
#DESIGNER ""
#DIFFICULTY 0
#PLAYLEVEL
#SONGID ""
#WAVE ""
#WAVEOFFSET 0
#JACKET ""
#REQUEST "ticks_per_beat 480"
#00002: 4
#BPM01: 194
#00008: 01
#TIL00: ""
#HISPEED 00
#MEASUREHS 00
#02312:00000013
#0231b:00001313
#02316:0013
#02314:0000000000000023
#02319:0000000000000023
#02412:0013000000130013
#02415:00130000
#02418:0000001300000000
#0241b:00131313
#02416:0013
#02417:0000000000000013
#0251b:13130013
#02512:0013001300000000
#02515:0013
#02518:0000000000130000
#02516:00130000
#03918:0000000013131300
#03912:0000120000000013
#03915:00000000000000000013001300130000
#0391f:0000000000000011
#0391b:0000000000000023
#0401b:0013000000000000
#04015:00131313
#04017:0000000000130000
#04012:0000001300000013
#04817:0000001300000013
#0481b:0023000000000013
#04818:00130000000000001400000000000000
#04815:00000000000000000013000000000000
#04813:00000000000000140000000000000000
#04814:14
#04812:0025000000230000
#04819:0000000000250000
#0481f:21
#04918:0013000000000000
#04914:00000013
#04912:0000002600000013
#04919:00000013
#0491b:0000000000130000
#04915:00000013000000000000000000000000
#0501b:1300130000000013
#05017:0013001300000000
#05016:0000000013001313
#05014:00000000000000130000000000000000
#05010:41
#05515:13130000
#0551a:00000013
#05517:0013000000000000
#05512:0000001300000000
#05518:0000000012120000
#05516:00000000000000000012001200000000
#05513:00000013
#0551b:0013000000000000
#00712:13000000001300000000130000001300
#00718:00130000000000000000001300000000
#00714:0013000000001300
#0071b:00000013000000001300000013000000
#00717:00000000130000000013000000000000
#00719:0000001300000000
#00715:00000000000000130000000000000000
#00716:0000000000000023
#0081b:0013000013000013
#00812:00130013
#00819:0000001300000000
#00816:0000000013000013
#00814:0000000000130000
#00817:00130013
#00810:00410000
#00917:0013000000000023
#00912:00130000
#00916:0013
#0091b:0000000000130013
#00919:0000001300000000
#04713:00000013
#0471a:00000000000000140000000013000000
#04712:001400001c000000
#04716:00000014000014000000000000000000
#04714:00140000
#04718:00000000001400000000000000000000
#01412:0000130000140000
#01414:0000001300000000
#0141a:0014
#01416:00000000000000000014000000000000
#01415:0013000000000014
#01417:13130014
#05914:0000001300000000
#0591b:0013
#05912:00130013
#05917:00130013
#05919:0000000000130000
#05916:0013
#0601b:0013001300000013
#06017:0013
#06012:0013001300000013
#06016:000000000000000000000000000000000000000000000000000000000000000000000000000000000000000000000000000000000000000000000000000000000000000000000000000000000000000000000000000000000000000000000000000000000000000000000000000000000000000000000000000000000000000000000000000000000000000000000000000000000000000000000000000000000000000000000000000000000000000000000000000000000000000000000000000000000000000000000000000000000000000000000000000000000000000000000000000000000000000000000000000000000000000000000000000000000000000000000000000000000000000000000000000000000000000000000000000000000000000000000000000000000000000000000000000000000000000000000000000000000000000000000000000000000000000000000000000000000000000000000000000000000000000000000000000000000000000000000000000000000000000000000000000000000000000000000000000000000000000000000000000000000000000000000000000000000000000000000000000000000000000000000000000000000000000000000000000000000000000000000000000000000000000000000000000000000000000000000000000000000000000000000000000000000000000000000000000000000000000000000000000000000000000000000000000000000000000000000000000000000000000000000000000000000000000000000000000000000000000000000000000000000000000000000000000000000000000000000000000000000000000000000000000000000000000000000000000000000000000000000000000000000000000000000000000000000000000000000000000000000000000000000000000000000000000000000000000000000000000000000000000000000000000000000000000000000000000000000000000000000000000000000000000000000000000000000000000000000000000000000000000000000000000000000000000000000000000000000000000000000000000000000000000000000000000000000000000000000000000000000000000000000000000000000000000000000000000000000000000000000000000000000000000000000000000000000000000000000000000000000000000000000000000000000000000000000000000000000000000000000000000000000000000000000000000000000000000000000000000000000000001300000000000000000000000000000000000000000000000000000000000000000000000000000000000000000000000000000000000000000000000000000000000000000000000000000000000000000000000000000000000000000000000000000000000000000000000000000000000000000000000000000000000000000000000000000000000000000000000000000000000000000000000000000000000000000000000000000000000000000000000000000000000000000000000000000000000000000000000000000000000000000000000000000000000000000000000000000000000000000000000000000000000000000000000000000000000000000000000000000000000000000000000000000000000000000000000000000000000000000000000000000000000000000000000000000000000000000000000000000000000000000000000000000000000000000000000000000000000000000000000000000000000000000000000000000000000000000000000000000000000000000000000000000000000000000000000000000000000000000000000000000000000000000000000000000000000000000000000000000000000000000000000000000000000000000000000000000000000000000000000000000000000000000000000000000000000000000000000000000000000000000000000000000000000000000000000000000000000000000000000000000000000000000000000000000000000000000000000000000000000000000000000000000000000000000000000000000000000000000000000000000000000000000000000000000000000000000000000000000000000000000000000000000000000000000000000000000000000000000000000000000000000000000000000000000000000000000000000000000000000000000000000000000000000000000000000000000000000000000000000000000000000000000000000000000000000000000000000000000000000000000000000000000000000000000000000000000000000000000000000000000000000000000000000000000000000000000000000000000000000000000000000000000000000000000000000000000000000000000000000000000000000000000000000000000000000000000000000000000000000000000000000000000000000000000000000000000000000000000000000000000000000000000000000000000000000000000000000000000000000000000000000000000000000000000000000000000000000000000000
#06015:16160016
#06118:0013000000001300
#0611a:0000000000000013
#06112:00130000
#06115:00000013000000000000000000000000
#06117:0000001300000000
#06116:0000000000130000
#06212:0000000000000014
#06215:13130000
#06213:0013000000000000
#06216:0013000000000000
#0621a:0000001300000014
#06218:13130000
#06217:0000001300000000
#06214:00000013
#06219:00000013
#06210:00000041
#02612:1212
#02617:00120012
#02610:41
#04118:00001600000000000013001300130000
#04112:0000160000000023
#04115:00000016000000001300130013000000
#0411b:0000000000000013
#00012:12
#0001c:00120000
#0001a:0000000012120000
#00015:0000000000120000
#00018:1200000000000012
#00016:00120000
#00113:12
#0011c:00120000
#00118:12000012
#00116:00121200
#05617:0000000000230013
#05612:0000000000230013
#05619:00140014
#05613:00140014
#0561b:0023000000000000
#05616:0023000000000000
#0571b:0013002300130000
#05718:00130000
#05715:00000000001300000000000000000000
#05714:00000013
#05712:0000002300000013
#05719:00000013
#06514:00131300
#06516:0013000000000000
#06512:0000000000130013
#06517:0000000000000013
#07012:0013000000000013
#0701b:0000000000000013
#07014:00130013
#07019:00000013
#07017:0013000000000000
#07016:0000001300000000
#07013:00000000000000000033000000000000
#07018:00000000000000000033000000000000
#07817:00000000000000000012000000001200
#07815:0012
#07819:0000000000120000
#01218:0013000000000000
#01216:13130013
#01219:0000001300000000
#01217:0000000013000013
#01214:0000000000130000
#0121b:00130013
#01212:0000000013000013
#0131b:0013000000000013
#01316:00130000
#01312:0013
#01317:0000000000130023
#01319:0000001300000000
#01517:0000000000000013
#01519:0013000000001300
#01512:00000013000000001300000013000000
#01516:00000000130000000013000000000000
#0151b:00000000001300000000130000002300
#01514:0000001300000000
#01518:00000000000000130000000000000000
#01515:00000000000000000000001300000000
#01617:0013000000000013
#0161b:0000130000130000
#01612:0000001300000013
#01619:1313
#01613:0000000000130000
#01616:00000000130000000013000000000000
#01615:00000016
#01610:00410000
#01716:0013000000001413
#01717:0000001300000000
#01712:0000000000000023
#02217:0000130000000013
#02212:0013130014001300
#02216:13000000000000000014000013000000
#0221a:0000000000140000
#0221b:1300001300000013
#0371b:00130000
#03719:0000000000130000
#03712:12130013
#03717:0000001300001300
#03714:0000000000130000
#03716:0013
#02712:12000000130000000000001200000000
#02717:00130000
#0271c:0000001200000000
#02716:00000000000000120000000012000000
#0271a:0012
#02714:00000000000000000012000000000000
#02718:0000000000120000
#0311b:00000013
#03112:00001213
#03114:0000000000000023
#03119:0000000000000023
#04212:0013000000000000
#04219:00131313
#04217:0000000000130000
#0421b:0000001300000013
#04312:0016001900000023
#04318:00160000
#04315:00000016000000000000190000000000
#04316:0000000000000013
#04619:0013131313131300
#04614:0013131313131300
#04612:0000000000000014
#0461a:0000000000000014
#05112:0000001300001300
#05118:0013
#05117:00130000
#0511b:0000001300001300
#05116:0000000000000013
#05119:00000000000000000000000000000014
#05115:0000000000130000
#05214:14
#05218:00130000000000001400000000000000
#05217:0000001300000000
#05215:00000000160000000013000016000000
#05213:00000000000000140000000000000000
#05212:0025000000230013
#05216:0000000000000013
#0521b:0023000000000000
#05219:0000000000250000
#05315:0013000000000000
#05318:00000013000026000000000000000000
#0531b:0000000000000013
#05312:0000000000131300
#05317:0000000000131300
#05412:1300130000000013
#05417:0000000013000013
#05416:0013001300001300
#05419:00000000000000130000000000000000
#05816:00131300
#05812:0000001313000000
#0581b:1300000000000013
#05817:0013000000000013
#00212:12
#0021c:00120000
#0021a:0000000012120000
#00215:0000000000120000
#00218:1200000000000012
#00216:00120000
#00313:12
#00318:1200001200001200
#0031c:00120000
#0031a:0012
#00316:0000000000120000
#00314:0000000000000012
#00612:12
#0061c:00120000
#0061a:0000000012120000
#00615:0000000000120000
#00618:1200000000000012
#00616:00120000
#0281c:1212
#02817:00120012
#0291c:12
#02912:00130000
#02914:0000000000130000
#0291b:00130013
#02916:0000001300001300
#02919:0000000000130000
#02917:0013
#03019:12
#0341c:1212
#03417:00120012
#03410:41
#0351c:12000000000000000000001200000000
#0351b:00130000
#03516:0000130000120000
#03512:0000001200000000
#03518:00000000000000120000000012000000
#03514:0012
#0351a:00000000000000000012000000000000
#0661b:0013130000000000
#06612:0000001300000014
#06614:00001313
#06616:00130000000000000000130000000000
#06617:00000000000000130000000000000000
#0661a:0000000000000014
#06619:00000013
#07118:00120000
#07116:0012
#07117:0000000000000012
#07112:0000220000000012
#0711c:0022
#0771c:0012000000000012
#07714:0000001200000000
#07712:0000000000120012
#07716:0012000000000000
#07718:0000000000120000
#0771a:0000001200000000
#07212:0012000012120012
#0721c:0012000000000000
#07312:0012000012120012
#0731a:0000001200000000
#07318:0000000000120000
#0731c:0012000000000000
#07317:0000000000000012
#07412:0012000012120012
#0741c:0012000000000000
#07512:0012000012120000
#07517:00000012
#0751a:0000000000120000
#07518:0000000012000012
#0751b:0000001200000000
#07519:00120000
#0751c:0012000000000000
#07514:0000000000000022
#07612:0000000000000012
#0761c:0012
#07619:00000012
#0761a:0012000000000000
#07615:0000000000120000
#07616:0012000000000000
#00412:12
#0041c:00120000
#0041a:0000000012120000
#00415:0000000000120000
#00418:1200000000000012
#00416:00120000
#00513:12
#0051c:00120000
#00518:12000012
#00516:00121200
#01012:0013000013000013
#0101b:00130013
#01014:0000001300000000
#01017:0000000013000013
#01019:0000000000130000
#01016:00130013
#01112:0000000000001313
#01117:0013000000000000
#01116:0000000000000023
#01816:0013000000000013
#01812:0000130000130000
#0181b:0000001300000013
#01814:1313
#0181a:0000000000130000
#01817:00000000130000000013000000000000
#01815:00000016
#01916:0013000000000013
#0191b:0000000000001323
#0201b:0013130000130000
#02012:1300001300000013
#02019:0013
#02013:0000000000130000
#02017:1300000000000013
#02016:00000000130000000013000000000000
#02015:00000016
#02116:0013000000001400
#02117:0000001300000013
#02112:0000000000000023
#0321b:0013000000130013
#03218:00130000
#03215:0000001300000000
#03212:00131313
#03217:0013
#03216:0000000000000013
#03312:13130013
#0331b:0013001300000000
#03318:0013
#03315:0000000000130000
#03317:00130000
#04412:0000000000130000
#04417:0000000000000013
#0441b:0000000000000023
#0451b:0000000000000013
#06312:00000000130000130000000000001300
#06314:00001300000000000013000000000000
#06318:00000013000000000000000000000000
#0631b:0000130000130000
#06316:00000000000000000000001300000000
#06319:0000001300001300
#06315:00000000001300000000000000130000
#06317:0013
#0631c:0000000000000022
#06416:0012000012000000
#06414:00120000
#06412:0000001200000000
#06413:0000000000120000
#06415:0000000000001212
#06714:0013000000130000
#06716:00130013
#06719:0000001300000000
#06717:0013
#0671b:0000000000000013
#06712:0000000000000022
#06919:00131300
#0691b:0013000000000013
#06917:0000000000130000
#06916:0000000000000013
#0681b:0012000000000000
#06819:00121200
#06817:0000001200000000
#0681c:0000000000120000
#0681a:0000000000001212
#03815:12
#03612:1212
#03617:00120012
#03952:0000000000000053
#00856:0000000000000013
#06253:0023000000000000
#06255:53530000
#06256:0023000000000000
#06258:63630000
#0625a:0000002300000000
#06257:0000002300000000
#0615a:0000000000000023
#06158:00000053
#0605b:0000005300000000
#06057:0023
#06052:0000006300000000
#06056:000000000000000000000000000000000000000000000000000000000000000000000000000000000000000000000000000000000000000000000000000000000000000000000000000000000000000000000000000000000000000000000000000000000000000000000000000000000000000000000000000000000000000000000000000000000000000000000000000000000000000000000000000000000000000000000000000000000000000000000000000000000000000000000000000000000000000000000000000000000000000000000000000000000000000000000000000000000000000000000000000000000000000000000000000000000000000000000000000000000000000000000000000000000000000000000000000000000000000000000000000000000000000000000000000000000000000000000000000000000000000000000000000000000000000000000000000000000000000000000000000000000000000000000000000000000000000000000000000000000000000000000000000000000000000000000000000000000000000000000000000000000000000000000000000000000000000000000000000000000000000000000000000000000000000000000000000000000000000000000000000000000000000000000000000000000000000000000000000000000000000000000000000000000000000000000000000000000000000000000000000000000000000000000000000000000000000000000000000000000000000000000000000000000000000000000000000000000000000000000000000000000000000000000000000000000000000000000000000000000000000000000000000000000000000000000000000000000000000000000000000000000000000000000000000000000000000000000000000000000000000000000000000000000000000000000000000000000000000000000000000000000000000000000000000000000000000000000000000000000000000000000000000000000000000000000000000000000000000000000000000000000000000000000000000000000000000000000000000000000000000000000000000000000000000000000000000000000000000000000000000000000000000000000000000000000000000000000000000000000000000000000000000000000000000000000000000000000000000000000000000000000000000000000000000000000000000000000000000000000000000000000000000000000000000000000000000000000000000000000000002300000000000000000000000000000000000000000000000000000000000000000000000000000000000000000000000000000000000000000000000000000000000000000000000000000000000000000000000000000000000000000000000000000000000000000000000000000000000000000000000000000000000000000000000000000000000000000000000000000000000000000000000000000000000000000000000000000000000000000000000000000000000000000000000000000000000000000000000000000000000000000000000000000000000000000000000000000000000000000000000000000000000000000000000000000000000000000000000000000000000000000000000000000000000000000000000000000000000000000000000000000000000000000000000000000000000000000000000000000000000000000000000000000000000000000000000000000000000000000000000000000000000000000000000000000000000000000000000000000000000000000000000000000000000000000000000000000000000000000000000000000000000000000000000000000000000000000000000000000000000000000000000000000000000000000000000000000000000000000000000000000000000000000000000000000000000000000000000000000000000000000000000000000000000000000000000000000000000000000000000000000000000000000000000000000000000000000000000000000000000000000000000000000000000000000000000000000000000000000000000000000000000000000000000000000000000000000000000000000000000000000000000000000000000000000000000000000000000000000000000000000000000000000000000000000000000000000000000000000000000000000000000000000000000000000000000000000000000000000000000000000000000000000000000000000000000000000000000000000000000000000000000000000000000000000000000000000000000000000000000000000000000000000000000000000000000000000000000000000000000000000000000000000000000000000000000000000000000000000000000000000000000000000000000000000000000000000000000000000000000000000000000000000000000000000000000000000000000000000000000000000000000000000000000000000000000000000000000000000000000000000000000000000000000000000000000000000000000000000000
#04857:0000000000000063
#04852:0035000000330000
#04859:0000000000450000
#0485b:0043000000000000
#05056:0000000053000053
#0505b:0000000000000053
#05652:0000000000330063
#0565b:0043000000000000
#05656:0033000000000000
#05657:0000000000430000
#00752:0000000000000053
#01252:0000000000000013
#01256:23
#01557:0000000000000063
#01657:0000000000000013
#01652:0000000000000013
#02257:0000000000000053
#0225b:2300000000000053
#0375b:00630000
#03757:0000002300000000
#02452:0000000000230000
#02456:0063
#02457:0000000000000053
#0255b:23
#0415b:0000000000000063
#04352:0000003900000000
#04355:0000000000490000
#04356:0000000000000063
#05252:0035000000330000
#0525b:0043000000000000
#05259:0000000000450000
#05256:0000000000000053
#05856:0063
#05852:0063
#05857:0000000000000053
#0585b:0000000000000053
#05952:00000033
#0635c:0000000000000022
#06352:0000000000000033
#06552:0000000000000053
#06557:0000000000000043
#06656:00230000000000000000000000000000
#0665b:00630000
#06657:00000000000000230000000000000000
#06752:0000000000000022
#0675b:0000000000000043
#07752:0000000000000052
#0775c:0000000000000052
#02952:00530000
#02956:0000002300000000
#00156:0062
#0015c:00620000
#0055c:00620000
#00556:0062
#0095b:0000000000430063
#01057:0000000000000013
#01152:0000000000000053
#01457:23000044
#01455:0000000000000034
#0135b:0000000000430063
#01756:0000000000000053
#01856:0000000000000013
#0185b:0000000000000013
#01956:0000000000000063
#02057:0000000000000013
#02052:2300000000000013
#02157:0000000000000053
#0325b:0000000000230000
#03257:0053
#03256:0000000000000063
#03352:23
#04457:0000000000000053
#04952:0000003600000000
#05457:0000000063000063
#05358:0000004600000000
#0555b:0023000000000000
#05752:0000003300000000
#0575b:0000004300000000
#0695b:0000000000000063
#06956:0000000000000033
#07057:0023000000000000
#07158:00120000
#07156:0012
#04052:0000000000000033
#0425b:0000000000000043
#04752:003c
#0465a:0000000000000054
#0013c0:00120000
#001380:0022
#001361:0012
#001321:00000022
#0053c1:00120000
#005381:0022
#005360:0012
#005320:00000022
#007320:0000000000000013
#008360:0023000000000000
#0093b0:0013000000000000
#009370:00230000
#009320:0013
#009360:0000000000230000
#0093b0:0000000000000013
#010370:0023000000000000
#0113b0:0013230000000000
#011351:0000132300000000
#011390:0000001323000000
#011331:0000000013230000
#011370:0000000000132300
#011320:0000000000000013
#012360:53
#012320:0023000000000000
#013360:0013000000000000
#013320:00230000
#013370:0013
#0133b0:0000000000230000
#0133b0:0000000000000013
#014370:53
#0143b0:0023000000000000
#015370:0000000000000013
#016320:0023000000000000
#017320:0013000000000000
#017350:00230000
#017381:00130000
#0173b1:0000002300000000
#017361:0013
#017321:0000000000230000
#0173b0:0013
#017370:0000000000230000
#017360:0000000000000013
#0183b0:0023000000000000
#019320:0013230000000000
#019381:0000132300000000
#019340:0000001323000000
#0193a1:0000000013230000
#019360:0000000000132300
#019360:0000000000000013
#020320:53
#020360:0023000000000000
#0213b0:0013000000000000
#021380:00230000
#021351:00130000
#021321:0000002300000000
#021371:0013
#0213b1:0000000000230000
#021320:0013
#021360:0000000000230000
#021370:0000000000000013
#0223b0:53
#022370:0023000000000000
#022370:0000000000000013
#023320:00230000
#0223b1:0000000000000013
#023361:00230000
#024361:00001323
#024321:0000000000530000
#024371:0000000000000013
#0253b1:53
#025371:0023000000000000
#026381:1200005232000052
#0263c1:0052320000523200
#027381:22
#028361:1200005232000052
#028321:0052320000523200
#029361:22
#029321:00132300
#029361:0000005300000000
#030371:12220000
#030341:00520052000000000000000000000000
#0303c0:00122200
#030390:00000000005200520000000000000000
#030351:00001222
#030321:00000000000000000052005200000000
#0303b0:00000012
#030380:00000000000000000000000000520052
#0313b0:22
#031361:12220000
#031331:00520052000000000000000000000000
#0313c0:00122200
#031390:00000000005200520000000000000000
#032370:00001323
#0323b0:0000000000530000
#032360:0000000000000013
#033320:53
#033360:0023000000000000
#034340:12323232
#034360:00520052000000000052005200000000
#034320:00000000005200520000000000520052
#035340:22
#0363a0:12323232
#036380:00520052000000000052005200000000
#0363c0:00000000005200520000000000520052
#0373a0:22
#0373b0:00132300
#037370:0000005300000000
#038370:12220000
#0383a0:00520052000000000000000000000000
#038321:00122200
#038351:00000000005200520000000000000000
#038390:00001222
#0383c0:00000000000000000052005200000000
#038331:00000012
#038361:00000000000000000000000000520052
#039331:22
#039380:12220000
#0393b0:00520052000000000000000000000000
#039320:0000000000000013
#040360:0023000000000000
#040380:0000132300000000
#0403b0:0000000013230000
#0403b0:00000013
#040370:0000000000000023
#0413b0:0000000000000013
#042370:0023000000000000
#042350:0000132300000000
#042320:0000000013230000
#042320:00000013
#042360:0000000000000023
#043360:0000000000000013
#0443b0:5323000000000000
#044361:0013230000000000
#0443b0:0000132300000000
#044321:0000001323000000
#044370:0000000013230000
#044370:0000000000000013
#045320:5323000000000000
#045371:0013230000000000
#045320:0000132300000000
#045391:0000001323000000
#045340:0000000013230000
#0453b1:0000000000132300
#045360:0000000000001323
#0463a0:0000000000000014
#047360:0024000000000000
#048370:0000000000000013
#049320:0023000000000000
#0493b0:00130000
#049380:0000002300000000
#050360:13330000
#050320:0033002300000000
#050360:0013
#0503b0:0000000000532300
#050360:0000000000000013
#051320:0023000000000000
#0503b1:0000000000000013
#051371:0023000000000000
#052361:0000000000000013
#0533b1:0023000000000000
#053321:00130000
#053351:0000002300000000
#054371:13330000
#0543b1:0033002300000000
#054371:0013
#054321:0000000000532300
#054371:0000000000000013
#0553b1:0053000000000000
#055371:0000002300000000
#055371:00000000000000000000000000001323
#055320:00000000000000000000000000000013
#056320:23
#0563b1:1323000000000000
#056360:00132300000000000000000000000000
#056360:00000000000013230000000000000000
#0563b1:00000000000000132300000000000000
#056320:0000000013230000
#056371:00000000000000000013230000000000
#056321:0000000000000013
#057361:0023000000000000
#058361:13
#058321:0023000000000000
#0583b1:00130000
#058371:0000002300000000
#058361:0013
#0583b1:00000023
#058320:0013
#058370:00000023
#058370:0000000000000013
#059320:0023000000000000
#0583b1:0000000000000013
#059361:0023000000000000
#0603b1:0000001300230000
#060371:0053
#060320:0000001300230000
#060360:000000000000000000000000000000000000000000000000000000000000000000000000000000000000000000000000000000000000000000000000000000000000000000000000000000000000000000000000000000000000000000000000000000000000000000000000000000000000000000000000000000000000000000000000000000000000000000000000000000000000000000000000000000000000000000000000000000000000000000000000000000000000000000000000000000000000000000000000000000000000000000000000000000000000000000000000000000000000000000000000000000000000000000000000000000000000000000000000000000000000000000000000000000000000000000000000000000000000000000000000000000000000000000000000000000000000000000000000000000000000000000000000000000000000000000000000000000000000000000000000000000000000000000000000000000000000000000000000000000000000000000000000000000000000000000000000000000000000000000000000000000000000000000000000000000000000000000000000000000000000000000000000000000000000000000000000000000000000000000000000000000000000000000000000000000000000000000000000000000000000000000000000000000000000000000000000000000000000000000000000000000000000000000000000000000000000000000000000000000000000000000000000000000000000000000000000000000000000000000000000000000000000000000000000000000000000000000000000000000000000000000000000000000000000000000000000000000000000000000000000000000000000000000000000000000000000000000000000000000000000000000000000000000000000000000000000000000000000000000000000000000000000000000000000000000000000000000000000000000000000000000000000000000000000000000000000000000000000000000000000000000000000000000000000000000000000000000000000000000000000000000000000000000000000000000000000000000000000000000000000000000000000000000000000000000000000000000000000000000000000000000000000000000000000000000000000000000000000000000000000000000000000000000000000000000000000000000000000000000000000000000000000000000000000000000000000000000000000000000000000005300000000000000000000000000000000000000000000000000000000000000000000000000000000000000000000000000000000000000000000000000000000000000000000000000000000000000000000000000000000000000000000000000000000000000000000000000000000000000000000000000000000000000000000000000000000000000000000000000000000000000000000000000000000000000000000000000000000000000000000000000000000000000000000000000000000000000000000000000000000000000000000000000000000000000000000000000000000000000000000000000000000000000000000000000000000000000000000000000000000000000000000000000000000000000000000000000000000000000000000000000000000000000000000000000000000000000000000000000000000000000000000000000000000000000000000000000000000000000000000000000000000000000000000000000000000000000000000000000000000000000000000000000000000000000000000000000000000000000000000000000000000000000000000000000000000000000000000000000000000000000000000000000000000000000000000000000000000000000000000000000000000000000000000000000000000000000000000000000000000000000000000000000000000000000000000000000000000000000000000000000000000000000000000000000000000000000000000000000000000000000000000000000000000000000000000000000000000000000000000000000000000000000000000000000000000000000000000000000000000000000000000000000000000000000000000000000000000000000000000000000000000000000000000000000000000000000000000000000000000000000000000000000000000000000000000000000000000000000000000000000000000000000000000000000000000000000000000000000000000000000000000000000000000000000000000000000000000000000000000000000000000000000000000000000000000000000000000000000000000000000000000000000000000000000000000000000000000000000000000000000000000000000000000000000000000000000000000000000000000000000000000000000000000000000000000000000000000000000000000000000000000000000000000000000000000000000000000000000000000000000000000000000000000000000000000000000000000000000000000
#0613b0:00132300
#061321:00001323
#061380:00000013
#0613a0:0000000000000053
#062380:53532300
#062360:0053000000000000
#0623a0:0000005300000000
#062351:13532300
#062331:0053000000000000
#062371:0000005300000000
#0633c1:00000000000000000000000000001252
#0633b1:0000000000000000000000000000000000000000000000000000000000520052
#0643c1:52525252525252525252525252525252
#0643b1:0052005200520052005200520052005200520052005200520052005200520052
#0653c1:52525252525252525252220000000000
#0653b1:0052005200520052005200520052005200520052000000000000000000000000
#065321:0000000000000013
#066361:00530000000000000000000000000000
#066321:00230000
#0663b0:0000130000230000
#066370:00000000000000530000000000000000
#0673b0:0013230000000000
#067320:0000001323000000
#0673b0:0000000000132300
#067320:00000000000000000000000000001252
#067330:0000000000000000000000000000000000000000000000000000000000520052
#068320:52525252525252525252525252525252
#068330:0052005200520052005200520052005200520052005200520052005200520052
#069320:52525252525252525252220000000000
#069330:0052005200520052005200520052005200520052000000000000000000000000
#0693b0:0000000000000013
#070370:0053000000000000
#0703b0:0000002300000000
#0703b0:0013
#070380:00000000000000000033000000000000
#070370:0000000000230000
#070361:0013
#070331:00000000000000000033000000000000
#070321:0000000000230000
#0723c1:0012
#072391:0000000000320000
#0723b1:00000032
#072381:0000000000000022
#0743c1:0012
#074391:0000000000320000
#0743b1:00000032
#074381:0000000000000022
#077321:0000000000000012
#078361:0022000000000000
#0773c0:0000000000000012
#078380:0022000000000000
