This file was generated by Ched 2.6.2.0.
#TITLE ""
#ARTIST ""
#DESIGNER ""
#DIFFICULTY 0
#PLAYLEVEL
#SONGID ""
#WAVE ""
#WAVEOFFSET 0
#JACKET ""
#REQUEST "ticks_per_beat 480"
#00002: 4
#BPM01: 194
#00008: 01
#TIL00: ""
#HISPEED 00
#MEASUREHS 00
#04812:00140014
#04818:0014
#0481a:24
#0481f:21
#0491a:14
#04912:00140014
#04918:0014
#0501a:14
#05016:00140014
#05012:0014
#05010:41
#0511a:14
#0521a:00140014
#05214:0014
#05212:24
#05312:14
#0531a:00140014
#05314:0014
#05412:14
#05416:00140014
#0541a:0014
#05512:14
#05516:00140000
#0551a:0014
#05612:00140000
#05618:0014
#05614:00000014
#0561a:24
#0571a:14
#05712:00140000
#05718:0014
#05714:00000014
#0581a:14
#05816:00140014
#05812:0014
#05912:14
#05916:00140014
#0591a:0014
#07118:1614
#07114:00140000
#07112:0000000000000014
#0011a:00140000
#00118:0014
#00312:00140000
#00314:0014
#00518:00140000
#0051a:0014
#00912:1414
#00918:00140000
#01112:1414
#01118:0000140000000016
#01216:0014
#01212:00140000
#0131a:14
#01318:0014
#01314:00140000
#01312:0000000000000016
#02418:1414
#02514:1414
#0261a:1414
#02610:41
#02712:1414
#03218:1414
#03314:1414
#0341a:1414
#03410:41
#03512:1414
#03912:00000016
#03913:0014
#03919:0014
#0391f:0000000000000011
#03918:0000000000000026
#04018:00000016
#04012:0000000000000026
#04218:00000016
#04212:0000000000000026
#04112:00000016
#04118:0000000000000026
#0611a:00000014
#06212:14
#06210:00000041
#04612:00140000
#04614:0000000000000014
#0461a:00140000
#04618:0000000000000014
#0101a:1414
#01014:00140000
#0281a:14343400
#02817:00000014
#0631a:0000000000000014
#06417:00000000000000000000000000140000
#01518:0000140000000026
#01512:1414
#01418:00140014
#01412:0014
#03015:00000014
#03012:14343400
#0361a:00000014
#03618:14343400
#03814:14
#03812:00000034
#03813:00343400
#06712:0000000000000014
#06815:00000000000000000000000000140000
#02216:14
#0221a:00140000
#02212:0014
#0081a:00140000
#00816:0014
#00810:00410000
#01612:00140000
#01616:0014
#01610:00410000
#0171a:14
#01712:00140000
#01716:0014
#01812:14
#0181a:00140000
#01816:0014
#0191a:14
#01912:0000140000000016
#01916:0014
#02016:00140000
#0201a:0014
#02116:14
#02112:00140000
#0211a:0014
#06015:0014
#06012:14
#06014:00000034
#06013:00340000
#07014:00000016
#07016:0016
#07012:00160000
#0731a:0000000000000014
#07313:0034003400000000
#07512:0000000000000013
#07519:0034003400000000
#00712:0000000000000026
#0291a:34340000
#00419:0034
#00613:0034
#03112:34340000
#03718:34340000
#04418:00340000
#04514:00340000
#07212:0000000034000034
#0741a:0000000034000034
#07713:0033003300000000
#07612:0000000033000033
#06252:54
#04652:00640000
#04654:0000000000000064
#0465a:00540000
#04658:0000000000000054
#0285a:54
#02857:00000024
#0635a:0000000000000054
#06457:00000000000000000000000000240000
#03055:00000024
#03052:64
#0365a:00000024
#03658:64
#03854:54
#06752:0000000000000064
#06855:00000000000000000000000000240000
#0485a:14
#05252:14
#0565a:14
#06052:64
#06055:0024
#07154:00140000
#07158:0014
#07152:0000000000000064
#0735a:0000000000000054
#07552:0000000000000063
#000380:1434
#001380:24
#002340:1434
#003340:24
#004380:14
#004390:0034
#0053a0:24
#006340:14
#006330:0034
#007320:24
#022360:0000000000000014
#023360:00342400
#0283a0:14343400
#028370:00000034
#0293a0:34342400
#030320:14343400
#030350:00000034
#031320:34342400
#036380:14343400
#0363a0:00000034
#037380:34342400
#038340:14
#038330:00343400
#038320:00000034
#039320:24
#0433a0:0000000000000014
#044380:00342400
#044320:0000000000000014
#045340:00342400
#045320:0000000000000014
#046320:00340000
#046340:0000000000000034
#047320:0024
#0453a1:0000000000000014
#0463a1:00340000
#046381:0000000000000034
#0473a1:0024
#060321:14
#060331:00340000
#060351:0034
#060341:00000034
#061321:24
#062321:14
#062341:0024
#0623a1:0000000000001434
#0633a1:0034343434343434
#064371:00000000000000000000000000540000
#0653a1:00000024
#066321:0000000000001434
#067321:0034343434343434
#068351:00000000000000000000000000540000
#069321:00000024
#071321:0000000000000014
#072321:0000000034000034
#073331:0034003400000000
#073361:0000000000240000
#0733a1:0000000000000014
#0743a1:0000000034000034
#075391:0034003400000000
#075361:0000000000240000
#075321:0000000000000013
#076321:0000000033000033
#077331:0033003300000000
#077351:0000000000230000
#077381:0000000000000013
#078381:00000000000000003333330000002300
