This file was generated by Ched 2.6.2.0.
#TITLE ""
#ARTIST ""
#DESIGNER ""
#DIFFICULTY 0
#PLAYLEVEL
#SONGID ""
#WAVE ""
#WAVEOFFSET 0
#JACKET ""
#REQUEST "ticks_per_beat 480"
#00002: 4
#BPM01: 150
#00008: 01
#TIL00: ""
#HISPEED 00
#MEASUREHS 00
#04518:2616
#0451f:21
#04612:1616
#04610:41
#04718:16
#04712:0016
#04818:16
#04912:1616
#05018:1616
#05112:16
#05118:0016
#05212:16
#05312:0016
#05318:26
#05418:16
#05412:0016
#05518:1616
#05612:1616
#05718:1616
#05812:1616
#08014:0000000000000018
#08012:14
#07918:14
#07814:14
#07412:14
#07318:14
#0771a:14
#07612:14
#07518:14
#0711a:14
#07214:14
#07014:14
#0691a:14
#01719:14
#01919:14
#03714:14
#0371f:11
#03818:14
#03414:14
#03318:14
#03310:41
#01813:14
#02013:14
#02010:0000000000000041
#0211a:14
#02214:14
#0231a:14
#02414:14
#02518:14
#02612:14
#02718:14
#02812:14
#0291a:14
#03014:14
#03118:14
#03212:14
#00918:14
#01018:14
#01114:14
#01214:14
#0131a:14
#0141a:14
#01512:14
#01612:14
#00119:00140000
#00313:00140000
#00519:00140000
#04314:14
#04118:14
#06218:0016
#00219:00140000
#00413:00140000
#00619:00140000
#06718:14
#06814:14
#06810:0000000000000041
#06113:00000024
#06119:00000024
#06110:41
#06312:26
#00710:0000000000000041
#08054:0000000000000058
#04354:64
#04158:54
#007350:0000160000000026
#0353a0:14
#0363a0:24
#039320:14
#040320:24
#041380:14
#0423a0:24
#043340:14
#044320:24
#059380:1600000000000036
#060380:0000003600000000
#061380:26
#063320:16
#064320:3600000000360036
#066320:0026
#080340:0000000000000018
#085360:24
