This file was generated by Ched 2.7.0.0.
#TITLE ""
#ARTIST ""
#DESIGNER ""
#DIFFICULTY 0
#PLAYLEVEL
#SONGID ""
#WAVE ""
#WAVEOFFSET 0
#JACKET ""
#REQUEST "ticks_per_beat 480"
#00002: 4
#BPM01: 150
#00008: 01
#TIL00: ""
#HISPEED 00
#MEASUREHS 00
#00118:00000000000000000000001200000000
#00114:00320000000000001200000000000000
#00112:00000000000000000000001200000000
#00116:0000000000000012
#0011c:0000000000000012
#00113:32
#00115:00003232000000000000000000000000
#00819:0013131300000000
#00814:0013131300000000
#01618:0000000000000013
#01616:00000000130000000013000000000000
#0161b:0013
#01612:00000000000000000000001300000000
#01617:00000000000000000000001300000000
#01716:0013000000000000
#01718:00130000
#01715:00000000001300000000000000000000
#01717:00000000000000130000000000000000
#01712:00000000000000130000000000000000
#0171b:0013000000001300
#0181b:00000000000000130000130000000000
#01812:0013000000001300
#01818:00000000001300000000000000001300
#01817:0013000000000000
#01815:00130000
#01912:00001300000000130000000000000000
#01915:00130000
#01918:00000000001300000000000000000000
#0191b:00001300000000130000000000000000
#01914:00000013
#03312:1313
#03318:1212
#0331b:00130013
#03316:00120012
#03310:41
#03412:13
#03414:0013000000000013
#03416:00130000
#03417:13
#0341b:00130000
#03419:0000001300000000
#03517:00130000
#03516:13001314
#03512:0000130000000013
#0351b:1300000013000013
#03519:0013000000000000
#03514:0000001300000000
#03616:14
#03612:0000001300001300
#03816:13
#03814:0013000000000013
#03812:00130000
#03817:00130000
#03819:0000001300000000
#0381b:13
#03712:00130013
#0371b:1313
#03716:1212
#03718:00120012
#0371f:11
#00912:00000000130000000013000000001300
#00917:0000130000000013
#00918:0013
#00916:00000000000000000000001300000000
#0091b:00000000000000000000001300000000
#0101b:00000000130000000013000000001300
#01015:0013
#01017:00000000000000000000001300000000
#01012:00000000000000000000001300000000
#01016:0000000000000013
#01112:00000000130000000013000000001300
#01116:00000000000000000000001300000000
#01118:0013
#0111b:00000000000000000000001300000000
#01117:0000000000000013
#0121b:00130000
#0131b:00000000130000000000001300000000
#01317:00000000000000000013000000001300
#01312:0000000013000013
#01316:00000000130000000000001300000000
#01416:00000000130000000013000000001300
#0141b:0000000013000013
#01412:00000000000000000000001300000000
#01417:00000000000000000000001300000000
#01517:00000000130000000013000000001300
#01512:0000000013000013
#0151b:00000000000000000000001300000000
#01516:00000000000000000000001300000000
#03917:1313
#03919:0013000000000000
#0391b:0000130000000013
#03912:1300000013000013
#03916:00130014
#03914:0000001300000000
#04016:14
#04017:0000001300000000
#0411b:13
#04116:0013
#04112:0000001300000000
#04117:00000000001300000000000000000000
#04119:00000013
#04114:00000013
#04217:1313
#04212:13
#04216:00130013
#04318:1300000013000013
#04315:0000001313000000
#0431b:00000013000000000000000000000000
#04312:00000000000000000000001300000000
#04412:13
#0441b:13
#04418:0000000013131313
#04415:00000000000000000013001300130000
#00218:00001200120000000000001200000000
#00212:00001200120000000000001200000000
#00216:0012
#0021c:0012
#0021a:00000000000000000000000000000032
#0031a:00000032000000001200000000000000
#00318:00000000000000000000001200000000
#00314:00000000000000000000001200000000
#00316:0000000000000012
#0031c:0000000000000012
#0031b:3232000000000000
#00518:00000000000000000000001200000000
#00514:00320000000000001200000000000000
#00512:00000000000000000000001200000000
#00516:0000000000000012
#0051c:0000000000000012
#00513:32
#00515:00003232000000000000000000000000
#00618:00001200120000000000001200000000
#00612:00001200120000000000001200000000
#00616:0012
#0061a:00000000000000000012000000000032
#0071a:00000032000000001200000000000000
#00718:00000000000000000000001200000000
#00714:00000000000000000000001200000000
#00712:0000000000000025
#00719:0000000000000025
#0071b:3232000000000000
#00710:0000000000000041
#0041a:00001200120000000000001200000000
#00414:00001200120000000000001200000000
#00418:00000000000000120000000000000000
#00416:0012
#00413:00000000000000000000000000000032
#02716:00000013
#02712:00001300000000130000000000000000
#02718:00130000
#02715:00000000001300000000000000000000
#02717:00000000000000130000000000000000
#02817:13
#02816:00130000
#0281b:0000130000130000
#02818:0000001300001316
#02815:00000000000000000013000000001300
#02812:13000000000000130000000013000000
#04519:00130000
#04516:0013000000000000
#04517:0000001300000000
#04512:2300001313000000
#04518:00000000000000000013000000001300
#04515:0000000000130013
#0451b:00000000000000000000001300000000
#0451f:21
#0461b:1300001313000013
#04614:00130000
#04617:0013000000000000
#04616:0000001300000013
#04615:00000000000000000013000000000000
#04618:0000000000130000
#04612:00000000000000000000001300000000
#04610:41
#04712:0013000013000000
#04719:00130000
#04716:0000001300000000
#04717:0013
#0471b:00000000000013000000001300000000
#0471b:00000000000000000000001300000000
#04714:0000000000000013
#04812:00001300000000130000000000000000
#04816:00130000
#0481b:00000000001300000000000000002300
#04817:00000000000000130000000000000000
#04815:0000000000000013
#05715:13130000
#05716:00000000000000001400001400000000
#05712:00000000000013000000001300000000
#0571b:0000001313000013
#05718:0013000000000000
#0581b:0000001300130000
#05815:0013000000000000
#05818:13130000
#05816:0000000000130000
#05812:0000001300000013
#05814:00000013
#05817:0000000000000013
#05819:00000013
#06017:0013000000000013
#06015:00130000
#06019:00130013
#06013:0013000000000000
#0601b:0000001300130000
#06014:00000013
#06016:0000000000130000
#06012:0000002600000013
#02015:00000000000000000013000000001300
#02012:13000000000000130000000013000000
#02017:13
#02016:00130000
#0201b:0000130000130000
#02018:0000001300001300
#02010:0000000000000041
#02117:0013000000000000
#02115:00130000
#02118:00000000001300000000000000000000
#02116:00000000000000130000000000000000
#02112:0013000000001300
#0211b:00000000000000130000000000000000
#02212:00000000000000130000130000000000
#0221b:0013000000001300
#02215:00000000001300000000000000001300
#02216:0013000000000000
#02218:00130000
#0231b:00001300000000130000000000000000
#02318:00130000
#02315:00000000001300000000000000000000
#02312:00001300000000130000000000000000
#02319:00000013
#02412:0000130000130016
#02416:13
#0241b:13000000000000130000000013000000
#02417:00130000
#02415:0000001300001300
#02418:00000000000000000013000000002300
#02512:00001600000000130000000000000000
#02518:00130000
#02515:00000000001300000000000000000000
#0251b:0013000000000000
#02517:00000000000000130000000000000000
#02618:00000000130000160000130000000000
#02615:00000000001300000000000013000000
#02617:0013000000000000
#02612:0013000000000016
#03015:0000130000130000
#03018:00000000001300000000000013001600
#03016:0013000000000000
#03012:00000000000000160000000000000000
#0301b:0013000000000000
#0311b:0013000013000000
#03115:00130000
#03118:0000001300000000
#03112:0000000000000016
#03212:0000001300130000
#0321b:00001313
#03215:1616160023002300
#03218:0000002300230000
#05117:0013000000000000
#05114:00131300
#0511b:0000001313000000
#05116:0000001300000000
#05115:1300000000000000000000000000000000000000000000000013000000000000
#05118:0000000000000000000000000000000000000013000000000000000000000000
#05112:00000000000000000000001300000000
#05119:0000000000000013
#05215:0016000000000000
#05212:0000130000000023
#0521b:00000013
#05017:0000000000000013
#0501b:13000000130000000000001300000000
#05015:1300000000130000
#05018:00000000000000000013000000000000
#05012:0013000013000013
#05016:0000001300000000
#04912:13000000130000000000001300001300
#04918:1300000000130013
#04915:00000000000000000013000000000000
#0491b:0013000013000000
#04917:0000001300000000
#05316:13130000
#05312:0013001300000000
#0531b:00000000000000000000001300001300
#05318:0013
#05315:00000000000000000000002300000000
#05417:13130000
#0541b:0013001300000000
#05415:0013
#05412:00000000000000000000001300000000
#05419:0000000000000013
#05418:00000000000000000000002300000000
#0551b:0013000000000000
#05514:00131300
#05517:0000001300000013
#05512:0000001300000000
#05519:00130000
#0561b:00001300000000130000000000001300
#05618:00000000001300000000000000130000
#05615:00131300
#05612:0013000000000013
#0561a:00000000000000000013000000000000
#05614:0000000000130000
#05619:00000000000000000000001300000000
#05613:00000013
#02918:00001600001300000000000000000000
#02915:00130000
#02912:0013000000000000
#0291b:00000000000000130000000000000000
#02916:00000000000000130000000000000000
#05919:1413000000001300
#05913:14000000001300000000000000000000
#05914:00000013000000000000000000130000
#05918:0000130000000026
#05917:0000001300000000
#05912:00000000000000130000000000000000
#0591b:0013
#0591a:0000000000130000
#05916:00000000000000000013000000000000
#05915:00000000000000000000001300000000
#0611b:0000131300002300
#06115:0000130000130000
#06118:26000000000000000000001300000000
#06112:1300002600002300
#06110:41
#06212:0013
#06214:00000000140000000000001300000000
#06216:0000000000000013
#06217:0013
#06219:00000000000000000000001300000000
#0621b:0000000000000013
#06218:0014000000000000
#0621a:0000001400000000
#0631b:1300000000000013
#06317:00000000000000130000000000000000
#06312:2300000000000027
#0641b:00001300000000000000000013000013
#06412:0000131300130027
#06417:0000132700130000
#06416:0013000000001300
#0641a:0000000000000023
#06612:0000130000000013
#06617:0000000000000013
#0661a:1313131313130000
#06619:00130000001300000013000000000000
#0661b:00000013000000130000000000000000
#06615:00000000000000001300001300000000
#06717:00000000130000000000001300000000
#06715:0013
#0671b:00000000000000000013000000001300
#06712:00000000000000000000001300000000
#06716:00130000000000000000000000001300
#06816:00130000
#06817:00130000000000000000000000000000
#06810:0000000000000041
#06912:00000000130000000000001300000000
#06916:00000000000000000013000000001300
#0691b:0000000013000013
#06917:00000000130000000000001300000000
#0701b:00000000130000000000001300000000
#07012:00130000000000001300000000001300
#07017:00000000000000000013000000001300
#07016:00000000000000000000001300000000
#07112:00000000130000000000001300000000
#0711b:00130000000000001300000000001300
#07116:00000000000000000013000000001300
#07117:00000000000000000000001300000000
#07217:13000013
#0721b:00130000
#07216:00000000001300000000000000000000
#0721a:0000001300000000
#07219:0013
#07218:0000000000130016
#07215:000000000000330033003300000000000000000000130000000000000000000000000000000000000000000000000000
#07214:000000003300000000000000000000000000000000000000000000130000000000000000000000000000000000000000
#07213:000033000000000000000000000000000000000000000000000000000000000000130000000000000000000000000000
#07212:00000000000000000000000000130000
#0731b:00000000130000000000001300000000
#07318:0013
#07317:0013000000000000
#07312:0013000000000016
#07316:00130000
#07412:00000000130000000000001300000000
#07415:0013
#07416:0013000000000000
#0741b:0013000000000000
#07417:00130000
#07418:0000000000000016
#0751b:00000000130000000000001300000000
#07518:0013
#07517:0013000000000000
#07512:0013000000000016
#07516:00130000
#07612:00130000
#07616:0013000000000000
#0761b:0013000000000000
#07617:00130000
#07715:00130000
#07718:00000000130000000013000000000000
#0771b:00001300000013000000001300001300
#07712:0013001300000016
#08018:0000130013001316
#08012:00130000001300000000001300000000
#0801b:0013001300130000
#08015:00000013000000130013000000130000
#0651a:1313131313131313
#06515:0000130000000013
#06512:00000000000000001300001300000000
#0651b:00000013000000130000001300000013
#06519:00130000001300000013000000130000
#07818:0000130000000016
#07812:00001300000013000000001300001300
#07815:00000000130000000013000000000000
#0781b:0013001300000000
#07912:0013001300000016
#0791b:00001300000013000000001300001300
#07915:00130000
#07918:00000000130000000013000000000000
#00013:00000000000000000000000000000032
#00952:0000000000000053
#0105b:0000000000000063
#01152:0000000000000053
#01357:0000000000000063
#01456:0000000000000053
#01557:0000000000000063
#03352:1313
#0375b:1313
#04257:6363
#04256:00530053
#04358:63
#0435b:00000023000000000000000000000000
#04355:0053
#04352:00000000000000000000002300000000
#04452:33
#0445b:43
#04458:0000000000000063
#0415b:5343
#04157:00000000002300000000000000000000
#04156:13
#01658:0000000000000013
#0195b:00000000000000630000000000000000
#02055:0000000000000013
#02352:00000000000000530000000000000000
#02452:0000000000000016
#02757:00000000000000630000000000000000
#02858:0000000000000016
#03152:0000000000000016
#03158:0000000000000016
#0455b:00000000000000000000004300000000
#04555:0000000000000053
#04652:00000000000000000000003300000000
#0465b:0000000000000053
#04752:0053
#0515b:0063
#05155:2300000000000000000000000000000000000000000000000023000000000000
#05158:0000000000000000000000000000000000000023000000000000000000000000
#05152:00000000000000000000005300000000
#04952:23000000000000000000003300000000
#04958:0000000000000063
#04855:0000000000000053
#0505b:23000000000000000000004300000000
#05052:0000000000000063
#05255:00000013
#05652:0000000000000063
#05755:23
#0575b:0000000000000053
#05756:00000000000000001400001400000000
#05858:23
#0585b:0000000000130000
#05854:00000013
#05857:0000000000000013
#06052:0000003600000000
#05458:00000000000000000000004300000000
#06158:46
#06152:0000003600003300
#0615b:00000043
#00752:0000000000000015
#00759:0000000000000015
#01253:0000000000000033
#0125a:0000000000000043
#00854:0000000000000033
#00859:0000000000000043
#06652:0000000000000053
#0665a:6363636363630000
#06659:00230000002300000023000000000000
#0665b:00000023000000230000000000000000
#06756:00230000000000000000000000000000
#0675b:0000000000000063
#06852:0000000000000033
#0685b:0000000000000043
#06857:00230000000000000000000000000000
#06956:0000000000000053
#07052:00230000000000000000000000000000
#07057:0000000000000063
#0715b:00230000000000000000000000000000
#07258:0000000000000046
#07356:00530000
#07352:0000000000000036
#07457:00630000
#07458:0000000000000046
#07556:00530000
#07552:0000000000000036
#07652:0000000000000033
#0765b:0000000000000043
#07758:00630000
#0775b:0000002300000000
#07752:0000000000000036
#08058:0000000000000066
#0635b:63
#06357:00000000000000230000000000000000
#06352:0000000000000037
#0645b:00000000000000000000000000000023
#0645a:0000000000000063
#06452:0000000000000037
#06457:0000004700000000
#0655a:6363636363636363
#0655b:00000023000000230000002300000023
#06559:00230000002300000023000000230000
#05958:0000000000000046
#01752:00000000000000530000000000000000
#0215b:00000000000000630000000000000000
#02552:00000000000000530000000000000000
#02557:00000000000000530000000000000000
#0295b:00000000000000630000000000000000
#02956:00000000000000630000000000000000
#05355:00000000000000000000003300000000
#07858:0000000000000046
#07855:00530000
#07852:0000002300000000
#07952:0000000000000036
#07958:00630000
#0795b:0000002300000000
#000320:0000000000000012
#000330:00000000000000000000000000000032
#001330:32
#001340:00320000000000000000000000000000
#001350:00003232000000000000000000000000
#001360:00220000
#0013a1:00122200
#002381:0000000000000012
#0023a1:00000000000000000000000000000032
#0033b1:3232000000000000
#0033c1:00320000000000000000000000000000
#0033a1:00000032000000000000000000000000
#003381:00220000
#003330:00122200
#004320:0000000000000012
#004330:00000000000000000000000000000032
#005330:32
#005340:00320000000000000000000000000000
#005350:00003232000000000000000000000000
#005360:00220000
#0053a1:00122200
#006381:0000000000000012
#0063a1:00000000000000000000000000000032
#0073b1:3232000000000000
#0073c1:00320000000000000000000000000000
#0073a1:00000032000000000000000000000000
#007381:00220000
#007330:00122200
#008390:0000000000000000000000000000000013535353535353535353535323000000
#0083a0:00000000000000000000000000000000000000000000000000000000000000000053005300530053005300530053005300530053005300530000000000000000
#008341:0000000000000000000000000000000013535353535353535353535323000000
#008331:00000000000000000000000000000000000000000000000000000000000000000053005300530053005300530053005300530053005300530000000000000000
#009321:0000000000000013
#010361:00230000
#0103b1:0000000000000013
#011371:00230000
#011321:0000000000000013
#012361:00230000
#012331:0000000000000000000000001353535353535353535353535353535323000000
#012341:00000000000000000000000000000000000000000000000000530053005300530053005300530053005300530053005300530053005300530000000000000000
#0123a0:0000000000000000000000001353535353535353535353535353535323000000
#012390:00000000000000000000000000000000000000000000000000530053005300530053005300530053005300530053005300530053005300530000000000000000
#013370:0000000000000013
#0143b0:00230000
#014360:0000000000000013
#015320:00230000
#015370:0000000000000013
#0163b0:00230000
#017320:00000000000000130000000000000000
#017360:00000023
#018360:00000000000000130000230000000000
#0193b0:00000000000000130000000000000000
#019370:00000023
#0213b0:00000000000000130000000000000000
#021370:00000023
#022370:00000000000000130000230000000000
#023320:00000000000000130000000000000000
#023360:00000023
#025320:00000000000000130000000000000000
#025360:00000023
#025371:00000000000000130000000000000000
#0253b1:00000023
#026351:00000000000000130000000000000000
#026321:0000000000230000
#026381:0000000000000013
#0273b1:0023000000000000
#027371:00000000000000130000000000000000
#0273b1:00000023
#029361:00000000000000130000000000000000
#029321:00000023
#0293b0:00000000000000130000000000000000
#029370:00000023
#030380:00000000000000130000000000000000
#0303b0:0000000000230000
#030350:0000000000000013
#031320:0023000000000000
#031320:00000000000000001600002600000000
#031381:00000000000000000000001600002600
#034321:00001323
#034370:00001323
#0363b0:0000001323000000
#036351:0000000013230000
#036380:0000000000132300
#0383b0:00001323
#038361:00001323
#040321:0000001323000000
#040390:0000000013230000
#040341:0000000000132300
#0403b0:0000000000001323
#040361:0000000000000013
#041361:23
#0413b0:1323
#041370:00000000005300000000000000000000
#042370:13
#0423b0:0053230000000000
#042361:00130000
#042321:0000005323000000
#042370:0013
#0423b0:0000000000532300
#042361:00000013
#042321:0000000000000053
#043321:23
#043380:1300002300000000
#0433b0:00000053000000000000000000000000
#043350:0000000013000023
#043320:00000000000000000000005300000000
#044380:0000000000000013
#0453b0:0023000000000000
#045350:0000000000000013
#046320:0023000000000000
#0463b0:0000000000000013
#047370:0023000000000000
#047320:0013
#047360:00000000000000000000002300000000
#047370:0000000000000013
#048370:0023000000000000
#048350:0000000000000013
#049320:53
#049350:0023000000000000
#049380:0000000000000013
#0503b0:53
#050380:0023000000000000
#050320:0000000000000013
#051350:53
#051320:0023000000000000
#0513b0:00000000000000001300002300000000
#051380:0000000000000000000000000000000000000053000000000000000000000000
#051321:00000000000000000000001300002300
#051351:0000000000000000000000000000000000000000000000000053000000000000
#0523b1:00130000
#052381:0000000053230000
#052320:0000001300000000
#052350:0000000000532300
#052380:0000000000000013
#0533b0:33330000
#053380:0033002300000000
#053350:00000000000000000013002300000000
#053350:0000000000000013
#054320:33330000
#054350:0033002300000000
#054380:00000000000000000013002300000000
#054360:0000000000000013
#055320:53
#055360:0023000000000000
#055370:00000000000000001300002300000000
#0553b0:0000000000000000000000000000000000000053000000000000000000000000
#055321:00000000000000000000001300002300
#056321:0000000000000013
#057351:53
#057321:0023000000000000
#0573b1:0000000000000013
#058381:53
#0583b1:0023000000000000
#0633b1:13000023
#063371:00000000000000530000000000000000
#0643a1:0000000000000013
#0643b1:00000000000000000000000000000053
#0653a1:5353535353535353
#065391:00530000005300000053000000530000
#0653b1:00000053000000530000005300000053
#0663a1:5353535353530000
#066391:00530000005300000053000000000000
#0663b1:00000053000000530000002300000000
#066321:0000000000000013
#067361:00530000000000000000000000000000
#067321:00230000
#0673b1:0000000000000013
#068371:00530000000000000000000000000000
#0683b1:00230000
#068321:0000000000000000000000001353535353535353535353535353535323000000
#068331:00000000000000000000000000000000000000000000000000530053005300530053005300530053005300530053005300530053005300530000000000000000
#0683b0:0000000000000000000000001353535353535353535353535353535323000000
#0683a0:00000000000000000000000000000000000000000000000000530053005300530053005300530053005300530053005300530053005300530000000000000000
#069360:0000000000000013
#070320:00530000000000000000000000000000
#070360:00230000
#070370:0000000000000013
#0713b0:00530000000000000000000000000000
#071370:00230000
#072320:13
#072330:003300000000000000000000000000000000000000000000
#072340:003300000000000000000000
#072350:000000333333000000000000000000000000000000000000
#072360:00230000
#073360:00130000
#073320:0023
#073350:00000000000000000013002300000000
#074370:00130000
#0743b0:0023
#074380:00000000000000000013002300000000
#075360:00130000
#075320:0023
#075350:00000000000000000013002300000000
#076320:0000000000000000000000001353535353535353535353535353535323000000
#076330:00000000000000000000000000000000000000000000000000530053005300530053005300530053005300530053005300530053005300530000000000000000
#0763b1:0000000000000000000000001353535353535353535353535353535323000000
#0763a1:00000000000000000000000000000000000000000000000000530053005300530053005300530053005300530053005300530053005300530000000000000000
#077381:00132300
#0773b1:0000005300000000
#077350:00000000000000001300002300000000
#078350:00132300
#078320:0000005300000000
#078381:00000000000000001300002300000000
#079381:00132300
#0793b1:0000005300000000
#079350:00000000000000001300002300000000
#080380:0000000000000016
#0853c0:22
