This file was generated by Ched 2.6.3.0.
#TITLE ""
#ARTIST ""
#DESIGNER ""
#DIFFICULTY 0
#PLAYLEVEL
#SONGID ""
#WAVE ""
#WAVEOFFSET 0
#JACKET ""
#REQUEST "ticks_per_beat 480"
#00002: 4
#BPM01: 150
#00008: 01
#TIL00: ""
#HISPEED 00
#MEASUREHS 00
#00818:0014001400000000
#00814:00140000
#01618:00000000000000000013000000001300
#01615:0013
#01612:00000000000000000000001300000000
#0161b:00000000000000000000001300000000
#01712:0013000000000000
#01718:00130000
#01715:00000000001300000000000000000000
#0171b:00000000000000130000000000000000
#01815:00000000001300000000000013000000
#01818:00130000
#01812:0013000000000000
#01915:00130000
#01918:00000000001300000000000000000000
#01912:00000000000000130000000000000000
#02015:0000000013000013
#02018:00130013
#02010:0000000000000041
#03312:13
#03318:00130000
#03315:0013
#0331b:00000013
#03310:41
#03412:1313
#03418:0013000000000000
#03415:0000130000000013
#0341b:0000001313000000
#0351b:13001313
#03518:0000130000000013
#03515:0013000000001300
#03512:0000001313000000
#03615:13
#0361b:13
#03612:0000001300000000
#03618:0013
#00912:00130000
#00915:00000000000000000013000000001300
#00918:0013
#0091b:00000000130000000000001300000000
#0131b:00000000130000000000001300001300
#01318:0013
#01315:00000000000000000013000000000000
#01312:00000000130000000000001300000000
#04212:13
#04218:13
#0421b:0013
#04215:0013
#04312:13
#04318:13
#0431b:0013
#04315:0013
#0011b:00000000000000000000001300000000
#00112:33333333000000000000000000001300
#00215:0013130000000000
#0021b:00001300130000000000001300000033
#00212:0013
#00715:00000000000000000000001300000000
#0071b:33003333000000000000001300000000
#00718:00130000000000000000000000002300
#00712:0000000000000023
#00710:0000000000000041
#00415:00000000000000130000000000000000
#0041b:0013
#00412:00001300130000000000001300001333
#00418:0013130000000000
#02812:13130000
#02818:13
#0281b:00001313
#02815:0000000013000013
#04515:0000130000130013
#04518:00000000000013000013000000000000
#04512:0013
#0451b:00000000000000000000001300000000
#0451f:21
#0461b:0000000013000013
#04618:0000130000130000
#04615:00000000000013000013000000000000
#04612:00000000000000000000001300000000
#04610:41
#04715:00130000
#0471b:0000001300000000
#04815:0000130000000013
#04818:00000000001300000000000000000000
#04812:00000000000000130000000000000000
#0481b:00000000000000130000000000000000
#05715:00130000
#05714:0014
#0571b:0000001300000000
#05712:0000000000000013
#05718:00000000000000000000001400000000
#0581b:0000000000130013
#05818:00130000
#05812:0000001300000000
#05815:00000013
#06018:0013000000130013
#06015:00130013
#0601a:0000002400000000
#02518:00130000
#02515:00000000001300000000000000000000
#0251b:00000000000000130000000000000000
#02512:00001300000000130000000000000000
#02615:00000000001300000000000013000000
#02618:00130000
#02612:0013000000000000
#02712:00130000
#02718:00000000001300000000000000000000
#02715:00000000000000130000000000000000
#03115:00130000
#03118:0000001300000000
#0311b:0013
#03117:00000000000000000000001300000000
#03113:0000000000000013
#05118:00130000
#05115:0000001300000000
#0511a:0014
#05116:00000000000000000000001400000000
#05112:0000000000000014
#05218:0013000000000013
#05212:00130000
#04912:00000000000000000000001300000000
#04918:0000001300130013
#04915:00000000130000000013000000000000
#0491b:0013
#05315:0000000013000013
#05318:00000000000013000013000000000000
#05312:00000000130000000000002300000000
#0561b:0013000000000013
#05618:00000000001300000000000000000000
#05615:00130000
#05518:0000001300000000
#05515:00131300
#00312:00000000000000000000001300000000
#0031b:33333333000000000000000000001300
#0051b:00000000000000000000001300000000
#00512:33003333000000000000000000001300
#00515:00130000000000000000000000000000
#00615:0013130000000000
#0061b:00001300130000000000001300001333
#00612:00000000000000000013000000000000
#00618:0013
#01018:00000000000000000013000000001300
#01015:0013
#01012:00000000000000000000001300000000
#01115:00000000000000000013000000001300
#01118:0013
#0111b:00000000000000000000001300000000
#01412:00000000000000000000001300001300
#01415:0013
#01418:00000000000000000013000000000000
#0141b:00000000000000000000001300000000
#0151b:00000000000000000000001300001300
#01518:0013
#01515:00000000000000000013000000000000
#01512:00000000000000000000001300000000
#0211b:0013000000000000
#02115:00130000
#02118:00000000001300000000000000000000
#02112:00000000000000130000000000000000
#02218:00000000001300000000000013000000
#02215:00130000
#0221b:0013000000000000
#02318:00130000
#02315:00000000001300000000000000000000
#0231b:00000000000000130000000000000000
#02418:0000000013000013
#02415:00130013
#02915:00130000
#02918:00000000001300000000000000000000
#02912:00000000000000130000000000000000
#0291b:00001300000000130000000000000000
#03018:00000000001300000000000013000000
#03015:00130000
#0301b:0013000000000000
#0381b:1313
#03815:0013000000000000
#03818:0000130000000013
#03812:0000001313000000
#03912:13001313
#03915:0000130000000013
#03918:0013000000001300
#0391b:0000001313000000
#04018:13
#04012:1300001300000000
#04017:0013
#04014:0000000000130000
#04019:00000013
#04016:0000000000000013
#0411b:13
#0441b:13
#04412:13
#04418:0000000000000013
#04414:0000000000130000
#04419:0000000000130000
#0501b:00000000000000000000001300000000
#05015:0000001300130000
#05018:00000000130000000013000000000000
#05012:0013
#05418:0013
#05415:00000000000013000013000000000000
#0541b:00000000130000000000002300000000
#0371b:13
#03715:00130000
#03718:0013
#03712:00000013
#0371f:11
#06115:00130000
#06118:0000000000130000
#06112:24000023
#0611b:0000002300000000
#06110:41
#0621b:0013
#06215:00000000000000000000001300000000
#06218:0000000000000013
#06315:13
#0631a:0000000000000024
#06415:0013000000001300
#06418:0000130000130000
#0641a:0000000000000024
#06412:0000002400000000
#06512:0000130000000013
#06518:0013
#06515:00000000000000000013000000000000
#0651b:00000000130000000000001300000000
#0661b:0000000000000013
#06615:0013
#06618:00000000000000000013000000000000
#06612:00000000000000000000001300000000
#06712:0000000000000013
#06718:0013
#06715:00000000000000000013000000000000
#0671b:00000000000000000000001300000000
#08018:00131313
#08015:0013001300130000
#08012:0000000000000016
#06918:0000000013000013
#06915:00000000000000000013000000000000
#0691b:00000000130000000000001300000000
#06912:0000130000000013
#07512:00000000000000000000001300000000
#07518:00000000000000000013000000000000
#07515:0000000013000013
#0751b:0000000000000013
#0741b:00000000000000000000001300000000
#07415:00000000000000000013000000000000
#07418:0000000013000013
#07412:0000000000000013
#07312:00000000130000000000001300000000
#07318:00000000000000000013000000000000
#07315:0000000013000013
#0731b:0000130000000013
#07015:0000000013000013
#07018:00000000000000000013000000000000
#07012:00000000130000000000001300000000
#0701b:0000130000000013
#07118:0000000013000013
#07115:00000000000000000013000000000000
#0711b:00000000130000000000001300000000
#07112:0000130000000013
#07712:0000130013000013
#07718:00000000000000000013000000001300
#07715:00000000000000000000001300000000
#0771b:00000000130000000000001300000000
#0781b:0000130013000013
#07815:00000000000000000013000000001300
#07818:00000000000000000000001300000000
#07812:00000000130000000000001300000000
#07912:0000130013000013
#07918:00000000000000000013000000001300
#07915:00000000000000000000001300000000
#0791b:00000000130000000000001300000000
#05912:0000000000000024
#0321b:0000002300000000
#03218:0023
#03215:0000000000230000
#03212:00000023
#00012:00000000000000000000000000000033
#06810:0000000000000041
#00854:0000000000000014
#00955:0000000000000053
#0135b:0000000000000063
#04252:63
#04258:63
#0425b:0053
#04255:0053
#04352:63
#04358:63
#0435b:0053
#04355:0053
#01658:0000000000000013
#01952:00000000000000530000000000000000
#02055:0000000000000013
#02755:00000000000000630000000000000000
#02855:0000000000000013
#0465b:0000000000000053
#04652:00000000000000000000001300000000
#0565b:0000000000000053
#05752:0000000000000063
#05754:0014
#05758:00000000000000000000001400000000
#0585b:0000000000000063
#01058:0000000000000063
#01155:0000000000000053
#01452:0000000000000053
#0155b:0000000000000063
#0235b:00000000000000630000000000000000
#02458:0000000000000013
#03153:0000000000000013
#03658:0053
#0415b:53
#04452:13
#0445b:13
#04458:0000000000000053
#0455b:00000000000000000000001300000000
#04555:0000000000000063
#04855:0000000000000053
#04952:00000000000000000000001300000000
#04958:0000000000000063
#0505b:00000000000000000000001300000000
#05258:0000000000000053
#05252:00530000
#05355:0000000000000063
#05352:00000000000000000000001300000000
#05555:0053
#0605a:0000001400000000
#00758:00230000000000000000000000001300
#00752:0000000000000013
#01259:0000000000000014
#03352:13
#03355:0013
#0375b:13
#03758:0013
#0545b:00000000000000000000001300000000
#06355:63
#0635a:0000000000000014
#0645a:0000000000000014
#06452:0000001400000000
#06552:0000000000000053
#0665b:0000000000000063
#06752:0000000000000053
#06859:0000000000000014
#07654:0000000000000014
#06152:14000013
#0615b:0000001300000000
#0735b:0000000000000063
#07355:0000000000000063
#05952:0000000000000014
#07253:0000000000000014
#07452:0000000000000053
#07458:0000000000000053
#0755b:0000000000000063
#07555:0000000000000063
#00452:0000000000000053
#00555:00230000000000000000000000000000
#0065b:0000000000000063
#08052:0000000000000056
#000320:00000000000000000000000000001333
#001320:33333333000000000000000000000000
#001350:00332300
#0023b0:00000000000000000000000000001333
#0033b0:33333333000000000000000000000000
#003380:00332300
#004320:00000000000000000000000000001333
#005320:33003333330000002300000000000000
#005350:00330000000000000000000000000000
#0063b0:00000000000000000000000000001333
#0073b0:33003333330000002300000000000000
#007380:00330000000000000000000000000000
#008340:0000000000000000000000000000000014545454545454545454545424000000
#008330:00000000000000000000000000000000000000000000000000000000000000000054005400540054005400540054005400540054005400540000000000000000
#009350:0000000000000013
#010320:00230000
#010380:0000000000000013
#0113b0:00230000
#011350:0000000000000013
#012320:00230000
#012390:0000000000000000000000001454545454545454545454545454545424000000
#012380:00000000000000000000000000000000000000000000000000540054005400540054005400540054005400540054005400540054005400540000000000000000
#0133b0:0000000000000013
#014380:00230000
#014320:0000000000000013
#015350:00230000
#0153b0:0000000000000013
#016380:00230000
#0183b0:00000000000000130000230000000000
#018380:0000000000000013
#019380:0023000000000000
#019320:00000000000000130000000000000000
#019350:00000023
#022320:00000000000000130000230000000000
#022350:0000000000000013
#023350:0023000000000000
#0233b0:00000000000000130000000000000000
#023380:00000023
#0263b0:00000000000000130000000000000000
#026380:0000000000230000
#026380:0000000000000013
#0273b0:0023000000000000
#027350:00000000000000130000000000000000
#027320:00000023
#030320:00000000000000130000000000000000
#030350:0000000000230000
#030350:0000000000000013
#031320:0023000000000000
#036380:0013
#0363b0:00000023
#0413b0:13
#041380:0000003323000000
#042320:13
#042350:00230000
#042381:13
#0423b1:00230000
#0423b1:0013
#042381:00000023
#042350:0013
#042320:00000023
#043320:13
#043350:0000002300000000
#043381:13
#0433b1:0000002300000000
#0433b1:0013
#043381:0000000000000023
#043350:0013
#043320:0000000000000023
#044380:0000000000000013
#0453b0:0023000000000000
#045350:0000000000000013
#046320:0023000000000000
#0463b0:0000000000000013
#047380:0023000000000000
#047320:00000000000000001300002300000000
#047380:0000000000000013
#048380:0023000000000000
#048350:0000000000000013
#049320:0023000000000000
#049380:0000000000000013
#0503b0:0023000000000000
#050320:0000000000000013
#051320:0023000000000000
#052320:00130000
#052350:0000005300332300
#0523b1:0000001300332300
#052381:0000000000000013
#0533b1:0023000000000000
#053351:0000000000000013
#054321:0023000000000000
#054381:0000000000000013
#055381:0023000000000000
#055351:0013
#055321:00000000000000000000003300002300
#055380:00000000000000000000001300002300
#056320:00000000000000130000230000000000
#0563b0:0000000000000013
#057380:0023000000000000
#057320:0000000000000013
#058350:0023000000000000
#0583b0:0000000000000013
#059370:00000023
#063350:13
#063320:00000023
#065320:0000000000000013
#066350:00230000
#0663b0:0000000000000013
#067380:00230000
#067320:0000000000000013
#068350:00230000
#068390:0000000000000000000000001454545454545454545454545454545424000000
#068380:00000000000000000000000000000000000000000000000000540054005400540054005400540054005400540054005400540054005400540000000000000000
#072330:0000000000000000145454545454545454545454545454545454545424000000
#072340:00000000000000000000000000000000005400540054005400540054005400540054005400540054005400540054005400540054005400540000000000000000
#0733b0:0000000000000013
#074380:00230000
#073351:0000000000000013
#074321:00230000
#074321:0000000000000013
#075351:00230000
#074380:0000000000000013
#0753b0:00230000
#0753b0:0000000000000013
#076380:00230000
#075351:0000000000000013
#076321:00230000
#076341:0000000000000000000000001454545454545454545454545454545424000000
#076331:00000000000000000000000000000000000000000000000000540054005400540054005400540054005400540054005400540054005400540000000000000000
#080321:0000000000000016
#085321:23
