This file was generated by Ched 2.7.0.0.
#TITLE ""
#ARTIST ""
#DESIGNER ""
#DIFFICULTY 0
#PLAYLEVEL
#SONGID ""
#WAVE ""
#WAVEOFFSET 0
#JACKET ""
#REQUEST "ticks_per_beat 480"
#00002: 4
#BPM01: 150
#00008: 01
#TIL00: ""
#HISPEED 00
#MEASUREHS 00
#00116:00000012000000000000001200000000
#00117:0000000012000012
#00112:00000000000000000000001200000000
#0011c:0000000000000012
#00118:12
#00114:00120000000000000000000000000000
#0011a:0012000000000000
#0081b:0013001300000000
#00812:0013001300000000
#00815:00160000
#01816:00001300120000130000130000001300
#01812:00000013
#0181b:00001300000000130000000000001300
#01818:00000000001200000000000000000000
#01813:00000000001200000000000000000000
#01817:0000000000000000000000000000000000130000000000001300000000000000
#01917:00001300000000130000000000000000
#01912:0013120000000000
#01916:00000013
#0191b:00000000001200130000000000000000
#01915:00000000001200000000000000000000
#01918:00120000
#01919:0000000000130000
#03412:1200000000001212
#03416:1212140000000000
#03418:0000001212000000
#0341c:0012
#03516:1212140000000000
#0351c:0012
#03518:0000001212000000
#03515:0000000000001212
#03519:0000000000001212
#03512:12
#03612:12
#0361c:12
#03618:0000001200000000
#0361b:0000000000000000000000000000001200000000001200000000000000000000
#03617:000000000000000000000000000000000000000000000000000000000000000000000000000000000000000000000000000000000000000000000000000000000000000000000000000000000000000000000000000000000000000000000000000000000000000000000000000000000000000000000000000000000000000000000000000000000000000000000000000000000000000000000000000000000000000000000000000000000000000000000000000000000000000000000000000000000000000000000000000000000000000000000000000000000000000000000000000000000000000000000000000000000000000000000000000000000000000000000000000000000000000000000000000000000000000000000000000000000000000000000000000000000000000000000000000000000000000000000000000000000000000000000000000000000000000000000000000000000000000000000000000000000000000000000000000000000000000000000000000000000000000000000000000000000000000000000000000000000000000000000000000000000000000000000000000000000000000000000000000000000000000000000000000000000000000000000000000000000000000000000000000000000000000000000000000000000000000000000000000000000000000000000000000000000000000000000000000000000000000000000000000000000000000000000000000000000000000000000000000000000000000000000000000000000000000000000000000000000000000000000000000000000000000000000000000000000000000000000000000000000000000000000000000000000000000000000000000000000000000000000000000000000000000000000000000000000000000000000000000000000000000000000000000000000000000000000000000000000000000000000000000000000000000000000000000000000000000000000000000000000000000000000000000000000000000000000000000000000000000000000000000000000000000000000000000000000000000000000000000000000000000000000000000000000000000000000000000000000000000000000000000000000000000000000000000000000000000000000000000000000000000000000000000000000000000000000000000000000000000000000000000000000000000000000000000000000000000000000000000000000000000000000000000000000000000000000000000000000000000000000000000000000000000000000000000000000000000000000000000000000000000000000000000000000000000000000000000000000000000000000000000000000000000000000000000000000000000000000000000000000000000000000000000000000000000000000000000000000000000000000012120000000000000000000000000000000000000000000000000000000000000000000000000000000000000000000000000000000000000000000000000000000000000000000000000000000000000000000000000000000000000000000000000000000000000000000000000000000000000000000000000000000000000000000000000000000000000000000000000000000000000000000000000000000000000000000000000000000000000000000000000000000000000000000000000000000000000000000000000000000000000000000000000000000000000000000000000000000000000000000000000000000000000000000000000000000000000000000000000000000000000000000000000000000000000000000000000000000000000000000000000000000000000000000000000000000000000000000000000000000000000000000000000000000000000000000000000000000000000000000000000000000000000000000000000000000000000000000000000000000000000000000000000000000000000000000000000000000000000000000000000000000000000000000000000000000000000000000000000000000000000000000000000000000000000000000000000000000000000000000000000000000000000000000000000000000000000000000000000000000000000000000000000000000000000000000000000000000000000000000000000000000000000000000000000000000000000000000000000000000000000000000000000000000000000000000000000000000000000000000000000000000000000000000000000000000000000000000000000000000000000000000000000000000000000000000000000000000000000000000000000000000000000000000000000000000000000000000000000000000000000000000000000000000000000000000000000000000000000000000000000000000000000000000000000000000000000000000000000000000000000000000000000000000000000000000000000000000000000000000000000000000000000000000000000000000000000000000000000000000000000000000000000000000000000000000000000000000000000000000000
#03616:0000001200000000
#03613:0000000000000000000000000000001200000000001200000000000000000000
#00915:0013130000000000
#00917:00000000000013000013001300001300
#0091b:0000130013000013
#00912:00000000000013000000001300000000
#00918:00000013000000000000000000000000
#03317:12121212
#03313:1212
#0331b:00120012
#03310:41
#04112:13
#04117:00000013000000000000000000000000
#04119:00000013
#04114:00000013
#04116:13
#0411b:00130000
#0421b:1300001313000000
#04216:1300001300001300
#04217:0013000000130000
#04212:0013130000130000
#04213:0000000000000013
#04218:0000000000000013
#0441b:13
#0441a:0013
#04414:00000000000000000013000000000000
#04419:0000000000130000
#04413:00000000000000000000001300000000
#04418:00000013
#04412:00000000000000000000000000130000
#04415:16
#04417:0000000000000013
#00219:00001200000000000000000000000012
#00217:00121200
#00212:00000000000000000000001200000000
#00214:0000000000000012
#00317:1200000012000012
#0031c:00120000000000000000001200000000
#00318:00000000000000000000001200000000
#00312:0000000000000012
#00314:0012000000000000
#00319:00000012000000000000000000000000
#00417:00120000
#00418:00000000000000120000000000000000
#00416:0000000012000012
#00414:00000000000000000000001200000000
#00415:0012000000000000
#0041a:00000000000000000000001200000000
#00412:00000000000000000000000000000012
#02712:00000000000000130000000013000000
#02717:00001300131300130000130000000000
#0271b:0000000000000000130013000000000000000013000000000000000000000000
#04518:00000000130000000013000000000000
#04515:0013000000130000
#04517:0000001300000013
#0451b:0000000013000013
#04512:23000000000013000000001300000000
#0451f:21
#04612:0000000013000013
#04616:0000001300000013
#04615:00000000130000000013000000000000
#04618:0013000000130000
#0461b:13000000000013000000001300000000
#04610:41
#0471b:0013000000000000
#04719:00130000
#04717:13000000000013000000001300000000
#04712:0000000013000013
#04714:00000000130000130000000000000000
#04716:0013
#04718:00000000000000000000000000000013
#04812:0013000000130000
#04816:0000130000150013
#0481b:00130000130000000000000013002300
#04815:13000015
#05717:13000000000000000000001300000000
#05712:00000000130000000000001300000000
#05714:0000001300000013
#05716:0013
#0571b:0000000013000013
#05719:0000001300000000
#0581b:0000130000130013
#05819:0000001300000000
#05816:1300000000130013
#05814:0000001300000000
#05812:00000013
#05817:00000013
#06015:00000000160000000000160000131600
#06012:00001600000026000000001300000013
#06018:00000013000000000000000016000000
#0601b:00000000001300000000000000000000
#06019:0000002300000000
#03119:00130000
#03117:0000001300000000
#03114:00130000
#03112:00000000000013000013000000001c00
#03116:0013000000000000
#03115:00000000000000001300001300000000
#03118:00000000000000000000130000130000
#0311b:00000013
#05119:0013001300000000
#0511b:13130000
#05112:00130000000000001600001600000000
#05114:0000001300000000
#05118:00000000000000000000001600000000
#05215:00001600000000000000000000000016
#05213:00130000
#05212:0000001300140023
#0521a:00131414
#05216:00000000000000000014001400000000
#0521b:0000001300000000
#05019:0000000000000013
#0501b:13131300
#05016:1300000000000013
#05012:00000000000013000000001300000000
#05015:0000000013130000
#05018:00000000000000000013001300000000
#05017:0000001300000000
#04912:1300130013000013
#04917:1300000000000013
#0491b:00000000000013000000001300000000
#04918:0000000013130000
#04915:00000000000000000013001300000000
#04916:0000001300000000
#05312:00000000130000000013000000000000
#0531b:13001300000000000000002300001300
#05315:00000016000000000000000000000016
#05316:00000000000000000000002300000000
#05519:0000001300000000
#0551b:0000130000000000000000000000000013000000000000000013000000000000
#05514:0013001300000000
#05512:1300000000000000130000000000000000000013000000000000000013000000
#05518:00000000000000000000001300000000
#05517:0013
#0561b:00001300000000130000000000000000
#05615:00000000161600000000130000000000
#05617:00000000000000001300001300000000
#05612:0013000000000013
#05619:00000000000000000013000000001300
#05614:00000013
#05616:00000000000000000000000000130000
#02012:1300001300001313
#02017:13000000120000000013000012000000
#0201b:0000130000130013
#02016:00000000000000130000000000000000
#02010:0000000000000041
#0171b:00000000001200000000000013000000
#01717:0013000000000000
#01712:00001300000000130000000000000000
#01716:00000000001200130000000000000000
#01718:00120000
#0591a:14
#05912:14000000000013000000000000130000
#05916:00001300000000000013000000000000
#05919:00000013000000000000130000000000
#05917:00000000001300000000000013000000
#05914:00000000130000000000001300000000
#05915:00000000000000160000000000002600
#0591b:0013
#06118:26160026
#06115:00000000001600000000001600000000
#06112:0000002600162300
#06114:23
#0611b:0000002300000000
#06110:41
#06318:16
#06312:1600000000000015
#06317:0000000000000027
#06412:0000000000000000130000002700000000001500000000000000000000130000
#06413:14001400000000000000000000002313
#06414:0000000000000000000000000000000000000000000000000000000000000013
#06417:0000130000001327
#06419:1414001500000000
#0641b:00000013
#06416:00000000000000150000000000000000
#06415:0000000000150000
#06717:00140000000000000000000000000000
#06716:00000000130000000012000000001300
#0671b:00001300000000000000001300001300
#06718:0012
#06712:00000000000000000000001300000000
#06617:00000000130000000000001300001300
#06612:0013000000130000001300000013000000130000001300000000000013000000
#0661a:00000000000000001313000000000000
#0661b:0013000000000000
#06613:13131313131313131313130000000000
#06614:0000001300000013000000130000001300000013000000000000000000000000
#06917:0000000000000013
#06912:0000000013000013
#06916:00000000000000000000001300000000
#06915:00000013000000000013000000000000
#0691b:00001300000000000000001300000000
#06918:00130000
#0701b:1300000013000013
#07017:00000000000000000000001300000000
#07018:00000000000000000013000000000000
#07012:00001300000000000000001300000000
#07015:00130000
#07019:00000013000000000000000000000000
#07016:0000000000000013
#07215:130000003300000033000000000000130000000000000000000000130000000000000000000000130000000000000000
#0721b:0000001300130000
#07218:1300130013001316
#07212:00001300000000130000001300000000
#07216:003300000000000000000000000000000000000000000000
#07214:000000000033000000000000000000000000000000000000
#07312:00000000130000000000001300001600
#0731b:1300000000000013
#07318:0013000000000000
#07315:13000013000000000000000000000000
#07317:0013
#08012:00130000130000001300000013001c00
#08018:00001300001300001300000013000000
#08015:00000013000013000013001300000000
#0801b:00000000130000130000130000130000
#0651b:00000000130000000000001300000000
#06518:00000000000000001313000000000000
#06513:13131313131313131313131313131313
#06517:0013000000000013
#06512:0013000000130000001300000013000000130000001300000013000000130000
#06514:0000001300000013000000130000001300000013000000130000001300000013
#00016:0000000000000012
#00012:00000000000000000000000000000012
#00516:00000012000000000000001200000000
#00517:0000000012000012
#00512:00000000000000000000001200000000
#0051c:0000000000000012
#00518:12
#00514:00120000000000000000000000000000
#0051a:0012000000000000
#00619:00001200000000000000000000000012
#00618:0012
#00613:00000000000000000000001200000000
#00617:00120000
#00614:0000000000000012
#00616:00000000000000000012000000000000
#0061b:00000000000000000000001200000000
#00717:12000000000000001200001200000000
#0071c:00120000000000000000001200000000
#00714:0012000000000000
#00719:00000012000000000000000000000000
#00712:000000000000002c
#00710:0000000000000041
#01018:0013130000000000
#01012:0000130013000013
#01016:00000000000013000013001300001300
#0101b:00000000000013000000001300000000
#01015:00000013000000000000000000000000
#01115:0013130000000000
#0111b:0000130013000013
#01117:00000000000013000013001300001300
#01112:00000000000013000000001300000000
#01118:00000013000000000000000000000000
#01218:0013130000000000
#01212:00130000
#01215:00000013000000000000000000000000
#01612:00001300000000000000001300001300
#01615:00000000130000000013000013000000
#01618:00000013000013000000130000000000
#0161b:0000000013000013
#01318:00130000
#0131b:00001300000000000013000000001300
#01317:00000000000000000000001300001300
#01316:0014
#01312:00000000000000000000001300000000
#01315:00000013000013000000000000000000
#01415:00130000
#01416:00000000000000001400001300001300
#01412:00001300000000000013000000001300
#0141b:00000000000000000000001300000000
#01418:00000013000013000000000000000000
#01518:00130000
#01516:0014
#01517:00000000000000000000001300001300
#0151b:00001300000000000013000000001300
#01512:00000000000000000000001300000000
#01515:00000013000013000000000000000000
#03713:00120012
#03717:12121212
#0371b:1212
#0371f:11
#04017:00000000000000000000000000120000
#04014:0000000000000013
#0401c:12
#04012:12
#0401b:0000001300000000
#04019:00000013
#0431b:1300001300130000
#04315:16151600
#04317:0013000000000013
#04312:0013000013000013
#04316:0000001300131500
#02217:00001300000000130000130000001300
#0221b:00000000001200000000000013000000
#02212:00001300000000130000000000001300
#02218:00120000
#02216:0000000000000000000012000000000000130000000000001300000000000000
#02316:00001300120000130000000000000000
#0231c:00120000
#02317:00000013
#02313:00000000001200000000000000000000
#0231b:0013000000000000
#02312:00000000000000130000000000000000
#02319:00000000001200000000000000000000
#02314:0000000000130000
#02112:00000013
#02116:0013120000000000
#0211b:00001300000000130000000000000000
#02117:00000000000000130000000000000000
#02113:00000000001200000000130000000000
#02118:00000000001200000000000000000000
#02616:00001500000000150000130000001300
#02612:00001300000000130000000000000000
#02617:00130000
#02614:00000000001300000000000000000000
#02619:0000000000000015
#0261b:0000000000130000
#0251b:00001300000000130000000013000000
#02515:0015000000000000
#02517:00000000000000130000130000000000
#02519:00000000001300000000000000000000
#02516:00130000
#02512:0000000000000000000000000000000000000013000000000000000000000000
#0281b:13000000000000000013000000001300
#02812:00000000000000130000000013000000
#02817:00000000130013130000000013000000
#02816:13000000000000000013130000000000
#02815:0000000000000016
#02412:0000130000130013
#0241b:1300001300001300
#02418:00000000000000130000000000000000
#02415:00000000000000000013000000002600
#02417:00120012
#02416:13
#0301b:00001300000000130000000000000000
#03019:00130000
#03016:00000000001300000000000000000000
#03015:00001500000000150000000000000000
#03017:0000000000130013
#03012:0000000000130015
#02912:00001300000000130000000013000000
#02916:00001500000000130000130000000000
#02917:00000000001300000000000000000000
#02914:00130000
#0291b:0000000000000000000000000000000000000013000000000000000000000000
#03212:14001400140000160000001600000000
#0321a:1414140000000000
#03215:00000000000026000016260000000000
#03218:00002626
#05414:0000000000000013
#05417:00000000000000000000002300001300
#0541b:00000000130000000013000000000000
#05412:13001300000000000000002300000000
#05415:00000016000000000000000000000000
#06212:0013131300000000
#0621b:0013131300000000
#06214:0000000000000018
#06216:0014
#06215:00000000000000000000001600000000
#06815:00140000000000000000000000000000
#06817:00130000
#06812:0013000000000000
#06818:0000000000000022
#06810:0000000000000041
#07112:1300000013000013
#07116:00000000000000000000001300000000
#07115:00000000000000000013000000000000
#0711b:00001300000000000000001300001300
#07118:00130000
#07114:00000013000000000000000000000000
#07417:13
#07412:1300000000000013
#07415:0013000000000000
#07418:00000013000000000000000000001600
#0741b:00000000130000000000001300000000
#07416:0013
#07516:13
#0751b:1300000000000013
#07518:0013000000000000
#07515:00000013000000000000000000000000
#07512:00000000130000000000001300001600
#07517:0013
#07617:13
#07612:13
#07615:0013130000000000
#07618:00000013000000000000000000000000
#0761b:00130000
#07616:0000000000000022
#07712:00000000130000000000001300001600
#0771b:1300000000000013
#07718:0013000000000000
#07715:00000013000000000000000000000000
#07716:13000000000000000013000000000000
#07717:00000000000000000000001300000000
#07817:13000000000000000013000000000000
#07812:1300000000000013
#07815:0013000000000000
#07818:00000013000000000000000000001600
#0781b:00000000130000000000001300000000
#07816:00000000000000000000001300000000
#07916:13000000000000000013000000000000
#0791b:1300000000000013
#07918:0013000000000000
#07915:00000013000000000000000000000000
#07912:00000000130000000000001300001600
#07917:00000000000000000000001300000000
#0381c:1200000000001212
#03818:1212000000000000
#03816:0000141212000000
#03812:0012
#03916:0000141212000000
#03918:1212000000000000
#03912:0012
#03919:0000000000001212
#03915:0000000000001212
#0391c:12
#00957:0000000000000053
#00952:00000000000000000000001300000000
#0095b:0000000000000013
#0425b:6363
#04257:0023000000230000
#04252:00530000
#04256:0000002300000000
#0445b:43
#04457:0000000000000053
#04152:5300003300000000
#04157:00000023000000003300000000000000
#04156:53
#0415b:00230000
#01957:00000000000000630000000000000000
#02757:00000000000000630000000000000000
#0275b:0000000000000000000000000000000000000023000000000000000000000000
#04552:00000000000000000000003300000000
#04557:0000001300000063
#04652:0000000000000053
#0465b:00000000000000000000004300000000
#04656:0000001300000000
#04756:0053
#04757:23
#05158:00000000000000000000006600000000
#05152:00530000000000000000005600000000
#04952:23
#0495b:00000000000000000000004300000000
#04957:0000000000000063
#04856:0000000000450053
#04855:00000035
#05652:0000000000000063
#05757:23000000000000000000004300000000
#0575b:0000000033000053
#05756:0033
#05752:00000000000000000000004300000000
#05856:2300000000330033
#05857:00000043
#06052:0000003600000000
#05356:00000000000000000000003300000000
#05352:00000000000000000053000000000000
#0535b:00000000000000000000003300000000
#06158:46000046
#06152:0000003600003300
#06757:00540000000000000000000000000000
#0675b:0000000000000023
#06756:0000000000000033
#06652:0023000000230000002300000023000000230000002300000000000023000000
#06653:53535353535353535353530000000000
#06654:0000002300000023000000230000002300000023000000000000000000000000
#06657:0000000000000043
#06957:0000000000000053
#06956:00000000000000000000001300000000
#06952:0000000000000033
#07258:0000000000000046
#07255:53
#07252:0023000000000000
#07352:00000000000000000000004300003600
#0735b:0000000000000063
#07357:00000000000000000000004300000000
#08052:000000000000005c
#06358:66
#06352:56
#06357:0000000000000047
#06452:0000000000000000000000003700000000000000000000000000000000230000
#06453:00000000000000000000000000005353
#06457:0000000000000047
#06454:0000000000000000000000000000000000000000000000000000000000000023
#06553:53535353535353535353535353535353
#06552:0023000000230000002300000023000000230000002300000023000000230000
#06554:0000002300000023000000230000002300000023000000230000002300000023
#05955:0000000000000046
#0125b:0000000000000043
#01257:0000000000000043
#0105b:00000000000000000000001300000000
#01056:0000000000000063
#01052:0000000000000013
#01152:00000000000000000000001300000000
#01157:0000000000000053
#0115b:0000000000000013
#01752:00000000000000530000000000000000
#01652:0000000000000013
#0135b:0000000000000063
#01357:00000000000000000000004300003300
#01456:00000000000000000000003300004300
#01452:0000000000000053
#01557:00000000000000000000004300003300
#0155b:0000000000000063
#03357:42324232
#0345c:0052
#03658:0000005200000000
#03657:000000000000000000000000000000000000000000000000000000000000000000000000000000000000000000000000000000000000000000000000000000000000000000000000000000000000000000000000000000000000000000000000000000000000000000000000000000000000000000000000000000000000000000000000000000000000000000000000000000000000000000000000000000000000000000000000000000000000000000000000000000000000000000000000000000000000000000000000000000000000000000000000000000000000000000000000000000000000000000000000000000000000000000000000000000000000000000000000000000000000000000000000000000000000000000000000000000000000000000000000000000000000000000000000000000000000000000000000000000000000000000000000000000000000000000000000000000000000000000000000000000000000000000000000000000000000000000000000000000000000000000000000000000000000000000000000000000000000000000000000000000000000000000000000000000000000000000000000000000000000000000000000000000000000000000000000000000000000000000000000000000000000000000000000000000000000000000000000000000000000000000000000000000000000000000000000000000000000000000000000000000000000000000000000000000000000000000000000000000000000000000000000000000000000000000000000000000000000000000000000000000000000000000000000000000000000000000000000000000000000000000000000000000000000000000000000000000000000000000000000000000000000000000000000000000000000000000000000000000000000000000000000000000000000000000000000000000000000000000000000000000000000000000000000000000000000000000000000000000000000000000000000000000000000000000000000000000000000000000000000000000000000000000000000000000000000000000000000000000000000000000000000000000000000000000000000000000000000000000000000000000000000000000000000000000000000000000000000000000000000000000000000000000000000000000000000000000000000000000000000000000000000000000000000000000000000000000000000000000000000000000000000000000000000000000000000000000000000000000000000000000000000000000000000000000000000000000000000000000000000000000000000000000000000000000000000000000000000000000000000000000000000000000000000000000000000000000000000000000000000000000000000000000000000000000000000000000000000000000000062520000000000000000000000000000000000000000000000000000000000000000000000000000000000000000000000000000000000000000000000000000000000000000000000000000000000000000000000000000000000000000000000000000000000000000000000000000000000000000000000000000000000000000000000000000000000000000000000000000000000000000000000000000000000000000000000000000000000000000000000000000000000000000000000000000000000000000000000000000000000000000000000000000000000000000000000000000000000000000000000000000000000000000000000000000000000000000000000000000000000000000000000000000000000000000000000000000000000000000000000000000000000000000000000000000000000000000000000000000000000000000000000000000000000000000000000000000000000000000000000000000000000000000000000000000000000000000000000000000000000000000000000000000000000000000000000000000000000000000000000000000000000000000000000000000000000000000000000000000000000000000000000000000000000000000000000000000000000000000000000000000000000000000000000000000000000000000000000000000000000000000000000000000000000000000000000000000000000000000000000000000000000000000000000000000000000000000000000000000000000000000000000000000000000000000000000000000000000000000000000000000000000000000000000000000000000000000000000000000000000000000000000000000000000000000000000000000000000000000000000000000000000000000000000000000000000000000000000000000000000000000000000000000000000000000000000000000000000000000000000000000000000000000000000000000000000000000000000000000000000000000000000000000000000000000000000000000000000000000000000000000000000000000000000000000000000000000000000000000000000000000000000000000000000000000000000000000000000000000000000
#0365b:0000000000000000000000000000002200000000002200000000000000000000
#03656:0000006200000000
#03653:0000000000000000000000000000002200000000002200000000000000000000
#03753:00320032
#0375b:4242
#0435b:1300001300000000
#04352:0000000013000013
#0185b:00000000000000630000000000000000
#01857:0000000000000000000000000000000000230000000000000000000000000000
#02356:00000000000000530000000000000000
#0215b:00000000000000630000000000000000
#0205b:0000000000000013
#02256:0000000000000000000000000000000000230000000000000000000000000000
#02252:00000000000000530000000000000000
#02557:00000000000000630000000000000000
#02552:0000000000000000000000000000000000000023000000000000000000000000
#02656:0000000000530063
#0265b:0000000000530000
#02652:00000000000000230000000000000000
#0285b:0000000000000013
#02856:53
#02452:0000000000000013
#02956:00000000000000530000000000000000
#0295b:0000000000000000000000000000000000000023000000000000000000000000
#03057:0000000000630053
#0305b:00000000000000230000000000000000
#03052:0000000000630000
#03152:000000000000004c
#0085b:0000000000000043
#00852:0000000000000033
#0505b:23
#05052:00000000000000000000003300000000
#05056:0000000000000023
#0525a:00000044
#05557:0063
#05558:00000000000000000000006300000000
#0555b:0000630000000000000000000000000000000000000000000023000000000000
#05552:0000000000000000000000000000000000000023000000000000000000000000
#05457:00000000000000000000004300002300
#0545b:00000000000000000063000000000000
#05452:00000000000000000000004300000000
#06855:00640000000000000000000000000000
#06852:0000000000000012
#0705b:2300000000000043
#07057:00000000000000000000001300000000
#07056:0000000000000063
#07152:2300000000000033
#07156:00000000000000000000001300000000
#07457:23
#0745b:00000000000000000000003300000000
#07458:0000000000000046
#07452:0000000000000053
#07456:00000000000000000000003300000000
#07556:23
#07552:00000000000000000000004300003600
#0755b:0000000000000063
#07557:00000000000000000000004300000000
#07657:23
#0765c:0000000000000012
#07752:00000000000000000000004300003600
#0775b:0000000000000063
#07757:00000000000000000000004300000000
#07857:23
#07856:00000000000000000000003300000000
#0785b:00000000000000000000003300000000
#07858:0000000000000046
#07852:0000000000000053
#07956:23
#07957:00000000000000000000004300000000
#07952:00000000000000000000004300003600
#00752:000000000000001c
#03852:0062
#0013c0:00122200
#002320:0012220000000000
#0023a0:00000000000000001200002200000000
#003320:00122200
#0043c0:0012220000000000
#0053c0:00122200
#006320:0012220000000000
#007320:00122200
#0083b0:0000000000000000000000000000000013535353535353535353535323000000
#0083a0:00000000000000000000000000000000000000000000000000000000000000000053005300530053005300530053005300530053005300530000000000000000
#008321:0000000000000000000000000000000013535353535353535353535323000000
#008331:00000000000000000000000000000000000000000000000000000000000000000053005300530053005300530053005300530053005300530000000000000000
#009371:0000000000000013
#010321:0023000000000000
#010361:0000000000000013
#0113b1:0023000000000000
#011371:0000000000000013
#012321:0023000000000000
#0123b1:0000001300000023
#012391:00000000000000000000000000000000000000000000000000530000530053000000000000000000000000000000000000005300530000530000000000000000
#0123a1:0000000000000000000000000053000000000000000000000000005300000000
#012381:00000000000000000000000000000000000000000000000000000053005300005300530053005300530053005300530053000053005300000000000000000000
#012371:00000000000000000000000000000000000000000000000000000000000000530053005300530000000000530053005300530000000000000000000000000000
#012361:00000000000000000000000000000000000000000000000000000000000000000000000000000053005300000000000000000000000000000000000000000000
#012370:0000001300000023
#012350:00000000000000000000000000000000000000000000000000530000530053000000000000000000000000000000000000005300530000530000000000000000
#012360:0000000000000000000000000053000000000000000000000000005300000000
#012340:00000000000000000000000000000000000000000000000000000053005300005300530053005300530053005300530053000053005300000000000000000000
#012330:00000000000000000000000000000000000000000000000000000000000000530053005300530000000000530053005300530000000000000000000000000000
#012320:00000000000000000000000000000000000000000000000000000000000000000000000000000053005300000000000000000000000000000000000000000000
#013320:0000132300000000
#0133b0:0000000000000013
#014360:0023000000000000
#0143b0:0000132300000000
#014320:0000000000000013
#015370:0023000000000000
#015320:0000132300000000
#0153b0:0000000000000013
#016360:0023000000000000
#0163b0:0000132300000000
#017320:00000000000000130000000000000000
#017370:00000023
#0183b0:00000000000000130000230000000000
#018370:0000000000000000000000000000000000530000000000000000000000000000
#019370:00000000000000130000000000000000
#019320:00000023
#0213b0:00000000000000130000000000000000
#021360:00000023
#022320:00000000000000130000230000000000
#022360:0000000000000000000000000000000000530000000000000000000000000000
#023360:00000000000000130000000000000000
#0233b0:00000023
#025320:00000000132300000000000000000000
#025370:00000000000000130000000023000000
#025320:0000000000000000000000000000000000000053000000000000000000000000
#0263b0:00000000132300000000000000000000
#026320:00000000000000130000000023000000
#026360:0000000000530000
#0263b1:0000000000130000
#026371:00000023
#026361:0000000000000013
#027321:0023000000000000
#027371:00000000000000130000000023000000
#0273b1:0000000000000000000000000000000000000053000000000000000000000000
#028361:13
#028321:00230000
#0293b1:00000000132300000000000000000000
#029361:00000000000000130000000023000000
#0293b1:0000000000000000000000000000000000000053000000000000000000000000
#030321:00000000132300000000000000000000
#0303b1:00000000000000130000000023000000
#030371:0000000000530000
#030320:0000000000130000
#030360:00000023
#030370:0000000000000013
#0313b0:0023000000000000
#0343c0:0012
#034370:00000022
#036380:0000001200002200
#0363b0:0000000000000000000000000000005200000000005200000000000000000000
#036370:00000000000000000052000000000000
#036361:0000001200002200
#036331:0000000000000000000000000000005200000000005200000000000000000000
#036371:000000000000000000000000000000000000000000000000000000000000000000000000000000000000000000000000000000000000000000000000000000000000000000000000000000000000000000000000000000000000000000000000000000000000000000000000000000000000000000000000000000000000000000000000000000000000000000000000000000000000000000000000000000000000000000000000000000000000000000000000000000000000000000000000000000000000000000000000000000000000000000000000000000000000000000000000000000000000000000000000000000000000000000000000000000000000000000000000000000000000000000000000000000000000000000000000000000000000000000000000000000000000000000000000000000000000000000000000000000000000000000000000000000000000000000000000000000000000000000000000000000000000000000000000000000000000000000000000000000000000000000000000000000000000000000000000000000000000000000000000000000000000000000000000000000000000000000000000000000000000000000000000000000000000000000000000000000000000000000000000000000000000000000000000000000000000000000000000000000000000000000000000000000000000000000000000000000000000000000000000000000000000000000000000000000000000000000000000000000000000000000000000000000000000000000000000000000000000000000000000000000000000000000000000000000000000000000000000000000000000000000000000000000000000000000000000000000000000000000000000000000000000000000000000000000000000000000000000000000000000000000000000000000000000000000000000000000000000000000000000000000000000000000000000000000000000000000000000000000000000000000000000000000000000000000000000000000000000000000000000000000000000000000000000000000000000000000000000000000000000000000000000000000000000000000000000000000000000000000000000000000000000000000000000000000000000000000000000000000000000000000000000000000000000000000000000000000000000000000000000000000000000000000000000000000000000000000000000000000000000000000000000000000000000000000000000000000000000000000000000000000000000000000000000000000000000000000000000000000000000000000000000000000000000000000000000000000000000000000000000000000000000000000000000000000000000000000000000000000000000000000000000000000000000000000000000000000000000000000000052000000000000000000000000000000000000000000000000000000000000000000000000000000000000000000000000000000000000000000000000000000000000000000000000000000000000000000000000000000000000000000000000000000000000000000000000000000000000000000000000000000000000000000000000000000000000000000000000000000000000000000000000000000000000000000000000000000000000000000000000000000000000000000000000000000000000000000000000000000000000000000000000000000000000000000000000000000000000000000000000000000000000000000000000000000000000000000000000000000000000000000000000000000000000000000000000000000000000000000000000000000000000000000000000000000000000000000000000000000000000000000000000000000000000000000000000000000000000000000000000000000000000000000000000000000000000000000000000000000000000000000000000000000000000000000000000000000000000000000000000000000000000000000000000000000000000000000000000000000000000000000000000000000000000000000000000000000000000000000000000000000000000000000000000000000000000000000000000000000000000000000000000000000000000000000000000000000000000000000000000000000000000000000000000000000000000000000000000000000000000000000000000000000000000000000000000000000000000000000000000000000000000000000000000000000000000000000000000000000000000000000000000000000000000000000000000000000000000000000000000000000000000000000000000000000000000000000000000000000000000000000000000000000000000000000000000000000000000000000000000000000000000000000000000000000000000000000000000000000000000000000000000000000000000000000000000000000000000000000000000000000000000000000000000000000000000000000000000000000000000000000000000000000000000000000000000000000000000000000000000
#038321:0012
#038371:00000022
#040321:0000001300000000
#040351:0023
#040380:0013
#0403b0:0000000000230000
#040351:0000000000130000
#040321:00000023
#041321:1300002300000000
#041371:00000053000000000000000000000000
#041360:13
#0413b0:00000053530000000000000000000000
#041370:0023
#0423b0:13230000
#042370:0053000000000000
#042321:00132300
#042361:0000005300000000
#0423b0:00001323
#042370:0000000000530000
#044370:0000000000000013
#0453b0:53230000
#045370:0000000000000013
#046320:00530000230000000000000000000000
#046320:0000000000000013
#047370:53
#047320:0023000000000000
#047360:0013
#0473b0:00000000000000000000002300000000
#0483b0:00000000001300000000000000000000
#048370:00000000000000230000000000000000
#048361:00000000001300000000000000000000
#048321:00000000000000230000000000000000
#048361:0000000000000013
#049321:53
#049361:0023000000000000
#0493b0:0013000000000000
#049360:00230000
#049370:0000000000000013
#0503b0:53
#050370:0023000000000000
#050321:0013000000000000
#050371:00230000
#050361:0000000000000013
#051321:00530000000000000000000000000000
#051361:00230000
#051381:00000000000000001600003600002200
#051320:00000000000000000000001600000000
#051360:0000000000000022
#0533b0:00000000000013230000000000000000
#053351:00000000000000132300000000000000
#053380:00000000000000001323000000000000
#053321:00000000000000000013000000000000
#053361:00000000000000000000002300000000
#054321:00000000000013230000000000000000
#054380:00000000000000132300000000000000
#054351:00000000000000001323000000000000
#0543b0:00000000000000000013000000000000
#054370:00000000000000000000002300000000
#054370:0000000000000013
#0553b0:00530000000000000000000000000000
#055370:00230000
#055370:0013
#055320:0000000000000000000000000000000000000053000000000000000000000000
#055350:00000000000000000000002300000000
#055381:00000000000000000000001300000000
#0553b1:0000000000000000000000000000000000000000000000000053000000000000
#055361:0000000000000023
#056321:0000000000000013
#057371:53
#057321:0023000000000000
#057370:0013230000000000
#0573b0:0000000000000013
#058360:53
#0583b0:0023000000000000
#058361:0013230000000000
#063381:16000022
#063320:16
#063360:00000022
#064330:00000000000000000000000000001353
#064320:0000000000000000000000000000000000000000000000000000000000530000
#064340:0000000000000000000000000000000000000000000000000000000000000053
#065330:53535353535353535353535353535353
#065320:0053000000530000005300000053000000530000005300000053000000530000
#065340:0000005300000053000000530000005300000053000000530000005300000053
#066330:53535353535353535353532300000000
#066320:0053000000530000005300000053000000530000005300000000000000000000
#066340:0000005300000053000000530000005300000053000000000000000000000000
#066320:0000000000000013
#067370:00540000000000000000000000000000
#067320:00230000
#0673b0:0000000000000013
#068350:00540000000000000000000000000000
#0683b0:00230000
#0683c0:000000000000000000123232220000000000000000000000
#068361:000000000000000000000000123232220000000000000000
#068380:000000000000000000000000000000123232220000000000
#068321:000000000000000000000000000000000000123232220000
#069321:00130000
#069361:0000002300000000
#0693b0:0000001300000000
#069370:0023
#069370:0000000000000013
#0703b0:53
#070370:0023000000000000
#0703b0:00130000
#070370:0000002300000000
#070321:0000001300000000
#070361:0023
#070361:0000000000000013
#071321:53
#071361:0023000000000000
#071321:00130000
#071361:0000002300000000
#0713b0:0000001300000000
#071370:0023
#072350:133333230000000000000000
#072360:003300000000000000000000000000000000000000000000
#072320:0033000000000000
#072340:000000000033000000000000000000000000000000000000
#073370:00130000
#0733b0:0000002300000000
#073361:0000001300000000
#073321:0023
#0733b1:00000000000000000013000000000000
#073371:00000000000000000000002300000000
#0733b1:0000000000000013
#074371:53
#0743b1:0023000000000000
#074361:00130000
#074321:0000002300000000
#074370:0000001300000000
#0743b0:0023
#074320:00000000000000000013000000000000
#074360:00000000000000000000002300000000
#074320:0000000000000013
#075360:53
#075320:0023000000000000
#075370:00130000
#0753b0:0000002300000000
#075361:0000001300000000
#075321:0023
#0753b1:00000000000000000013000000000000
#075371:00000000000000000000002300000000
#0753b1:0000000000000013
#076371:53
#0763b1:0023000000000000
#076321:000000000000000000123232220000000000000000000000
#076380:000000000000000000000000123232220000000000000000
#076361:000000000000000000000000000000123232220000000000
#0763c0:000000000000000000000000000000000000123232220000
#0773b0:00130000
#077370:0000002300000000
#077321:0000001300000000
#077361:0023
#0773b0:00000000000000001323000000000000
#0773b0:0000000000000013
#078370:53
#0783b0:0023000000000000
#078320:00130000
#078360:0000002300000000
#0783b1:0000001300000000
#078371:0023
#078320:00000000000000001323000000000000
#078320:0000000000000013
#079360:53
#079320:0023000000000000
#0793b0:00130000
#079370:0000002300000000
#079321:0000001300000000
#079361:0023
#0793b0:00000000000000001323000000000000
#080320:000000000000001c
#085320:22
