This file was generated by Ched 2.6.2.0.
#TITLE ""
#ARTIST ""
#DESIGNER ""
#DIFFICULTY 0
#PLAYLEVEL
#SONGID ""
#WAVE ""
#WAVEOFFSET 0
#JACKET ""
#REQUEST "ticks_per_beat 480"
#00002: 4
#BPM01: 150
#00008: 01
#TIL00: ""
#HISPEED 00
#MEASUREHS 00
#00119:00130000
#00314:13130000
#00519:13130000
#00914:00140000
#00918:0014
#01014:1414
#01018:00140000
#0111a:1414
#01114:00140000
#01212:1414
#01218:0000140000000026
#01314:00140000
#01318:0014
#01414:1414
#01418:00140000
#0151a:1414
#01514:00140000
#01612:1414
#01618:00140000
#03918:1414
#03914:00140014
#04018:14
#0401a:0014
#04012:0014
#03614:14
#03612:0014
#0361a:0014
#03514:1414
#03518:00140014
#03318:14140000
#03314:00001414
#03310:41
#03714:14140000
#03718:00001414
#0371f:11
#04518:24140016
#04512:0016
#04514:0014000000000000
#0451f:21
#04614:14140000
#04618:0014000016000000
#04612:00000016
#04610:41
#04912:24140016
#04918:0014000016000000
#0501a:14140000
#05014:0014000000000000
#05012:0016
#05018:00000016
#0531a:00140000
#05312:0016
#05318:24000016
#05314:0014000000000000
#05412:00140016
#05418:0014000016000000
#05414:14
#05618:14
#05712:14
#05718:00140000
#05714:0014
#0571a:00000014
#05812:14
#05818:00140000
#05814:0014
#0581a:00000014
#00714:13130000
#00715:0000000000000026
#00710:0000000000000041
#00614:00001313
#00419:00000013
#06514:00140000
#0651a:0014
#06612:1414
#06618:00140000
#0671a:1414
#06714:00140000
#06812:1400000014000024
#06818:00140000
#0681a:0000000000000024
#06810:0000000000000041
#06914:00140000
#06918:0014
#07012:14
#07018:00140000
#07014:0014
#0711a:14
#07114:00140000
#07118:0014
#07212:1400000000000024
#07218:00140000
#07214:0014
#0721a:0000000000000024
#07412:14
#07418:00140000
#07812:14
#07818:00140000
#0791a:1400000000000024
#07914:00140000
#07918:0014
#07912:0000000000000024
#07612:1400000000000024
#07618:00140000
#07614:0014
#0761a:0000000000000024
#0751a:14
#07514:00140000
#07314:00140000
#07714:00140000
#08014:00140000
#08018:0014
#08012:0000000000000016
#02614:00140000
#02618:0014
#02612:00000014
#0261a:14
#02714:00140000
#02718:14
#02518:00140000
#02514:0014
#02512:14
#01818:00140014
#01812:1414
#01718:1414
#01714:00140000
#01912:14
#01918:00140000
#02214:00140014
#0221a:1414
#02114:1414
#02118:00140000
#0231a:14
#02314:00140000
#03018:00140000
#03014:0014
#0301a:00000014
#03012:14
#03118:00140000
#03114:14
#03113:00000000000000000000003400000000
#02914:00140000
#02918:0014
#0291a:14
#0321a:0014
#03214:0014
#02818:0014
#02812:0014
#02419:0014
#02413:0014
#02019:0014
#02013:0014
#02010:0000000000000041
#06413:1414000000000000
#06419:1414000000000000
#0641a:0000000000000024
#06412:0000000000000024
#05514:0014
#05518:14
#0441a:14
#04412:14
#04314:00140014
#04318:1414
#04212:14
#04214:0000341434000000
#0411a:14
#04118:0000341434000000
#00818:0000000000000026
#05912:0000000000000024
#05918:0000000000000024
#06019:0000002400000000
#06013:0000002400000000
#06114:2400003400000000
#0611a:2400003400000000
#06110:41
#05658:54
#00755:0000000000000016
#08052:0000000000000056
#03154:0000000000000014
#05554:0064
#05558:54
#0445a:14
#04452:14
#04252:54
#04254:0000002400000000
#0415a:64
#04158:0000002400000000
#019320:0014
#020320:24
#0233a0:0014
#0243a0:24
#0273a0:0014
#028380:24
#031320:0014
#031330:00000000000000000000003400000000
#031340:0000000000000024
#034380:14342400
#038340:14342400
#0413a0:14000024
#041380:0000345434000000
#042320:14000024
#042340:0000345434000000
#047380:14240000
#047340:00001424
#048380:1424
#051340:14
#051320:00240000
#051380:0014
#0513a0:00000024
#052340:14
#052320:0024
#055380:14
#0553a0:00240000
#055340:0014
#055320:00000024
#056380:14
#0563a0:0024
#059320:1424
#0613a0:1400003400000000
#061380:00000024
#061341:1400003400000000
#061321:00000024
#062351:00000000000000001600003600003600
#063351:26
#073381:00001424
#074341:00001424
#075381:00001424
#077381:0014
#0773a1:00000024
#078341:0014
#078321:00000024
#080321:0000000000000016
#085321:23
