This file was generated by Ched 2.6.2.0.
#TITLE ""
#ARTIST ""
#DESIGNER ""
#DIFFICULTY 0
#PLAYLEVEL
#SONGID ""
#WAVE ""
#WAVEOFFSET 0
#JACKET ""
#REQUEST "ticks_per_beat 480"
#00002: 4
#BPM01: 204
#00008: 01
#TIL00: ""
#HISPEED 00
#MEASUREHS 00
#00513:14
#00510:41
#00619:14
#00919:14
#01013:14
#01312:14
#01310:41
#01412:14
#01518:14
#01618:14
#0291a:14
#0291f:11
#03014:14
#03118:14
#03212:14
#03318:14
#03414:14
#03518:14
#03712:0016
#03718:26
#0371f:21
#03918:1616
#04018:16
#04112:16
#04118:0016
#04918:16
#04912:0016
#05018:16
#05012:0016
#05418:14
#05718:14
#05814:14
#06218:14
#0651a:14
#06614:14
#0211a:14
#02110:41
#0221a:14
#02314:14
#02414:14
#03818:16
#03812:0016
#03810:41
#04312:1616
#04412:16
#04212:16
#04218:0016
#05314:24
#06112:24
#06010:41
#05110:41
#001380:16
#004380:26
#007330:14
#008330:24
#011390:14
#012390:24
#017340:14
#018340:24
#0193a0:14
#0203a0:24
#025380:14
#026380:24
#027320:14
#028320:24
#045380:1636
#046380:3626
#047320:1636
#048320:3626
#051380:1636
#052380:26
#055320:14
#056320:24
#0593a0:14
#0603a0:24
#063340:14
#064340:24
#067380:14
#068380:34342400
