This file was generated by Ched 2.6.2.0.
#TITLE ""
#ARTIST ""
#DESIGNER ""
#DIFFICULTY 0
#PLAYLEVEL
#SONGID ""
#WAVE ""
#WAVEOFFSET 0
#JACKET ""
#REQUEST "ticks_per_beat 480"
#00002: 4
#BPM01: 204
#00008: 01
#TIL00: ""
#HISPEED 00
#MEASUREHS 00
#00015:000000000000000000000013
#00018:000000000000000000000000000000000000000000000013
#00112:130000130000000013000000
#00117:001300000000
#0011b:000000000013001300000013
#00116:0013
#00118:00000013
#00115:000000000013
#0131b:13131313
#01317:000000000000000000000013
#01316:00130000
#01312:00000013
#01310:41
#01412:130000000013000000000013
#0141b:00130000
#01418:000000000013000013000000
#01416:001300000000
#01517:000013000013000000000013
#01512:0013
#0151b:00000013
#01516:000013
#01612:13130000
#01615:000000000013000013000000
#01618:00130000
#0161b:000000000013000000000000
#01617:000000000000000000000014
#0291b:00130000
#0291a:0013
#02919:00000013
#0291f:11
#03012:00130000
#03013:0013
#03014:00000013
#03115:13
#03116:0014
#03112:00130013
#0311b:00130013
#03213:14
#03212:00131300
#03215:00000013
#03217:0013
#03219:14000033
#0321b:00130000
#03316:13
#03315:00130000
#03312:00001313
#0331b:13
#03319:00330000
#0341b:13
#03418:0013
#03416:13
#03415:0013
#03518:001600001600
#03512:000013000016000000160016
#0351b:000000000013000000000000
#0361c:12
#03619:00120000
#03615:0012
#03612:00000012
#03718:230000000013130000000000
#03715:130000000000130000000013
#03712:000000000013000000000000000000000000000000000000
#0371b:000000000000000000000000000000000013000000000000
#0371f:21
#03818:130013
#0381b:000000130013000000000013
#03815:13000013
#03810:41
#03916:13130013
#03912:000000000013000000000013
#03917:0013
#0391b:000013
#04017:130000000013000000000000
#0401b:000000130000000000000013
#04016:001300000000
#04019:000013
#04012:0013
#04014:00000013
#0411b:1313
#04118:000000000013000000000000000000000000000000001300
#04112:000000000013130000000000
#04115:000000000000000000000000000000000013000000000000
#04116:13
#04218:13
#04219:00000013
#04212:13
#0441b:001300000000130000000000
#04417:000000130000000013000000
#04412:000013000000130000130000
#04416:130000000000000000000013
#0451b:130013000000000000130000
#04512:000000130013000000130000
#04517:000000000000130000000013
#04612:130013000000000000130000
#0461b:000000130013000000130000
#04616:000000000000130000000013
#0471b:130000000013130000000013
#04716:00141414
#04712:000013130000000013130000
#0481b:130000130000000000000013
#04812:00001313
#04816:000000000014000000000000
#04916:13000013
#04919:001300000000
#04914:00130000
#04912:000000000000130000000013
#04917:000000000013000000000000
#0491b:00000013
#0501b:000000000000130000000013
#05017:13000013
#05014:001300000000
#05019:00130000
#05016:000000000013000000000000
#05012:00000013
#0511b:130000000000000000000013
#05112:000000000013130000000000
#05110:41
#05216:14141400
#05212:000013130000000000130000
#0521b:130000000013130000130000
#00212:130000130013
#0021b:000013000000000000130000
#00216:00130000
#00217:000000000013000000000000
#00218:000000000000001300000013
#00215:000013
#00315:130000131300
#00312:001300000013
#0031b:000000000013000000130013
#00318:000000130000001300000000
#00412:19171513
#00417:000000000000000000000000003333333333333333333333
#00512:131300130000
#00517:001300000000000000000000
#0051b:000000130013000000130000
#00516:001300
#00518:000000000000001300000000
#00515:000000000000000013000013
#00510:41
#0061b:001300001300
#00615:00000013
#00616:000000000000003333333333000000000000000000000000
#00717:130000130000000000000013
#0071b:000000131300
#00712:001300000000
#00716:000000000013000000130000
#00812:130013130000130000000000
#00817:000000130013000000000000
#00816:000013
#0081b:00000013
#01012:001300001300
#01017:000000000000003333333333000000000000130000000000
#01112:130000000013000000000013
#01116:00141414
#0111b:001300001300
#0091b:131300130000
#00916:001300000000000000000000
#00912:000000130013000000130000
#00917:001300
#00915:000000000000001300000000
#00918:000000000000000013000013
#01712:13
#0171b:0013
#01715:000000000014000000000000
#01717:000000000000000000000014
#01812:1313
#0181b:00130000
#01815:001400000000
#01817:000000000014000000000000
#01816:000000000000000000000014
#0191b:13
#01912:0013
#01916:000000000014000000000014
#0201b:1313
#02012:00130000
#02016:000014000014000000000000
#02116:000000000000000000000013
#02112:13131313
#02117:00130000
#0211b:000013
#02110:41
#0221b:130000000013000000000013
#02212:00130000
#02215:000000000013000013000000
#02217:001300000000
#02316:000013000013000000000013
#0231b:0013
#02312:00000013
#02317:000013
#0241b:13130000
#02418:000000000013000013000000
#02415:000000130000000000000014
#02412:000000000013000000000000
#02518:16
#02512:0016
#02517:000000000014000000000000
#02515:000000000000000000000014
#02618:1616
#02612:00160000
#02617:001400000000
#02615:000000000014000000000000
#02616:000000000000000000000014
#02712:16
#02718:0016
#02716:000000000014000000000014
#02812:1616
#02818:00160000
#02816:000014000014000000000000
#0281b:000000000000000000000000000000000000003333333333
#04314:13
#0431b:00130000
#04317:0013
#04312:00000013
#0121b:00130000
#01212:0013
#01216:24242400
#05318:001300000013001300000000
#05315:001313001300
#0531b:00130013
#05312:230000000000130000000013
#0541b:001300001300
#05415:00000013
#05416:000000000000003333333333000000000000000000000000
#05616:000013130000000013000000
#05612:0013
#05617:000000000013000000000000
#0561b:13130013
#05812:001300001300
#05817:000000000000003333333333000000000000130000000000
#05816:0013
#05912:130000000013000000000013
#05916:00141414
#0591b:001300001300
#06012:001400000000000000130000
#06018:241400240000
#0601a:001400
#06014:000000240014000000000000
#06017:000000000000000000000000000000000000003333333333
#06010:41
#0571b:130000000000130000000013
#05715:001300000013001300000000
#05718:001313001300
#05712:00130013
#06112:130013000000130013000013
#06116:001400001400001400000000
#0611b:000000130013000000130000
#0621b:001300001300
#06215:00000013
#06216:000000000000003333333333000000000000000000000000
#0641b:000013130000000000130000
#06412:13131300
#06417:000000000013000000000000
#06416:000013
#06612:001300001300
#06617:000000000000003333333333000000000000130000000000
#06712:130000000013000000000013
#06716:00141414
#0671b:131300001300
#0651b:130013000000130013000013
#06516:001400001400001400000000
#06512:000000130013000000130000
#0681b:00130000
#06812:0013
#06816:24242400
#06317:130000000000000000000013
#0631b:000013000000130000130000
#06312:130000130000000013000000
#06316:000000000013000000000000
#05516:130000130000000000000013
#05512:000000131300
#0551b:001300000000
#05517:000000000013000000130000
#00652:0033
#0055b:00000013
#00555:000000000000000000000013
#00952:00000013
#00958:000000000000000000000013
#0105b:0043
#01458:000000000013000000000000
#01455:000013
#01452:000000000053000000000000
#0165b:000000000053000000000000
#01655:000000000013000000000000
#01658:000013
#01752:33
#0175b:0043
#0185b:00430000
#01852:3333
#0195b:43
#01952:0033
#0205b:4343
#02052:00330000
#03257:0053
#0335b:23
#03352:00000013
#0345b:13
#03458:0053
#03455:0053
#02255:000000000013000000000000
#0225b:000000000063000000000000
#02258:000013
#02458:000000000013000000000000
#02452:000000000063000000000000
#02455:000013
#02558:46
#02552:0036
#02658:4646
#02652:00360000
#02752:36
#02758:0046
#02852:3636
#02858:00460000
#03755:53
#03758:0053
#03752:000000000023000000000000000000000000000000000000
#0375b:000000000000000000000000000000000023000000000000
#03855:53
#03852:000000000013000000000000
#0415b:63
#04158:000000000023000000000000000000000000000000000000
#04152:0053
#04155:000000000000000000000000000000000023000000000000
#04156:33
#0425b:000000000013000000000000
#04258:53
#04252:000000000013000000000000
#04956:13
#04954:00130000
#04952:0013
#05057:13
#05059:00130000
#0505b:0013
#05156:1414
#05256:14141400
#04856:00140014
#00852:0013
#0085b:00000013
#0535b:00000013
#05352:130000000000000000000013
#05652:0013
#0565b:00000013
#05452:0033
#0585b:0043
#05752:00000013
#0575b:000000000000000000000013
#01256:14141400
#0615b:00000013
#06152:000000000000000000000013
#06452:0013
#0645b:00000013
#06252:0033
#0665b:0043
#06552:00000013
#0655b:000000000000000000000013
#06856:14141400
#00152:33
#04052:0033
#04054:00000033
#00452:39373533
#004370:000000000000000000000000133333333333333333333333
#0053b0:23
#006360:000000000000133333333333000000000000000000000000
#006320:0023
#010370:000000000000133333333333000000000000000000000000
#0103b0:0023
#014320:000000000013000000000000
#014350:000023
#015320:000013000023000000000000
#0163b0:000000000013000000000000
#016380:000023
#0223b0:000000000013000000000000
#022380:000023
#0233b0:000013000023000000000000
#024320:000000000013000000000000
#024350:000023
#0283b0:000000000000000000000000000000000000133333333333
#029370:23
#029321:13
#030351:23
#0303b0:13
#031380:23
#032370:0013
#032390:00000033
#0333b0:33
#033390:00330000
#033370:00003323
#034380:0013
#0353b0:23
#034351:0013
#035321:23
#037351:130000000023000000000000
#037321:000000000053000000000000000000000000000000000000
#037381:000000000000130000000023
#0373b1:000000000000000000000000000000000053000000000000
#038351:13
#038321:000000330023000000000000
#0413b1:130000000023000000000000
#041381:000000000053000000000000000000000000000000000000
#041321:000000000000130000000023
#041351:000000000000000000000000000000000053000000000000
#042381:13
#0423b1:000000330023000000000000
#042320:000000130023000000000000
#042360:000000000000000013230000
#042370:000000000000000000000013
#043370:23
#043360:000013230000000000000000
#043320:000000000013230000000000
#043370:000000000000000013230000
#0433b0:000000000000000000000013
#0443b0:23
#048360:14240000
#048360:00001424
#050360:000000000000000000000014
#051360:24
#051360:000000000014240000000000
#054360:000000000000133333333333000000000000000000000000
#054320:0023
#058370:000000000000133333333333000000000000000000000000
#0583b0:0023
#060370:000000000000000000000000000000000000133333333333
#0613b0:23
#062360:000000000000133333333333000000000000000000000000
#062320:0023
#066370:000000000000133333333333000000000000000000000000
#0663b0:0023
