This file was generated by Ched 2.6.2.0.
#TITLE ""
#ARTIST ""
#DESIGNER ""
#DIFFICULTY 0
#PLAYLEVEL
#SONGID ""
#WAVE ""
#WAVEOFFSET 0
#JACKET ""
#REQUEST "ticks_per_beat 480"
#00002: 4
#BPM01: 204
#00008: 01
#TIL00: ""
#HISPEED 00
#MEASUREHS 00
#00112:13
#00118:00130000
#00115:0013
#0011b:00000013
#0131b:13
#01318:000000000000130000000013
#01315:00130000
#01312:00000013
#01310:41
#0151b:000000000013000013000013
#01515:00001313
#0291b:00130000
#02918:0013
#02915:00000013
#0291f:11
#03018:00130000
#03015:0013
#03012:13000013
#03212:0013
#03215:00000013
#03318:1313
#0331b:00130000
#03315:00000013
#0361b:13
#03618:00130000
#03615:0013
#03612:00000013
#03815:000000130000000000000013
#03818:130000000013000000130000
#03812:000013
#03810:41
#0391b:1313
#03918:00130013
#03912:00130013
#03915:0013
#0401a:14
#04012:14
#04018:000000000034000000000000
#04014:000000000034000000000000
#04512:00140000
#04518:0014
#04514:00000014
#0451a:000000000000000000000014
#04614:1414
#0461a:00140000
#04618:00000014
#04612:000000000000000000000014
#04714:00140014
#04718:1414
#0471a:00140014
#04712:0014
#05015:000000000000000000000013
#0501a:14
#05018:00140000
#0511b:13
#05112:000000000013000000000000
#05118:0013
#05114:000000000000000000000014
#05110:41
#05213:001400000000
#05212:000000000014000000000000
#0521a:14
#05219:00140000
#05218:0014
#05215:00000013
#0521b:00000013
#00218:00130000
#00212:13
#00215:0013
#0021b:00000013
#00318:00130000
#00312:13
#00315:000000000000003333333333
#00512:00130000
#00518:000000000000133333000000
#00510:41
#00615:001300000000
#0061b:000000133333000000000000
#00712:13
#00715:0013
#00718:00130000
#0071b:00000013
#00812:13
#00815:0013
#0081b:00000013
#00818:00130000
#01112:00130000
#01118:0013
#0111b:13000013
#01115:000000000000000013000013
#01412:13
#0141b:000000000013000000000000
#01415:000000000000000000000013
#01618:000000000013000000000000
#01612:000000000000000000000013
#01615:13
#01718:13
#0171b:0013
#01715:000000000013000000000000
#01712:000000000000000000000013
#01818:1313
#0181b:000000130000000000000013
#01815:001300000000
#01812:000000000013000000000000
#01915:13
#01912:0013
#01918:000000000013000000000000
#0191b:000000000000000000000013
#02015:1313
#02012:00130000
#02018:001300000000
#0201b:000000000013000000000000
#03412:13
#0341b:0013
#03712:0013
#0371b:23
#0371f:21
#0091b:00130000
#00915:000000000000133333000000
#00912:13
#01018:001300000000
#01012:000000133333000000000000
#03118:1414
#03116:00140000
#0311a:00000014
#04218:000000130000000000000013
#04215:130000000013000000130000
#0421b:000013
#04312:1313
#0431b:00130013
#04315:00130013
#04318:0013
#04112:13
#0411b:0013
#04412:13
#04418:13
#0441a:000000000000003434343434
#02112:13
#02115:000000000000130000000013
#02118:00130000
#0211b:00000013
#02110:41
#02312:000000000013000013000013
#02318:00001313
#0221b:13
#02212:000000000013000000000000
#02218:000000000000000000000013
#02415:000000000013000000000000
#0241b:000000000000000000000013
#02418:13
#02515:13
#02512:0013
#02518:000000000013000000000000
#0251b:000000000000000000000013
#02615:1313
#02612:000000130000000000000013
#02618:001300000000
#0261b:000000000013000000000000
#02718:13
#0271b:0013
#02715:000000000013000000000000
#02712:000000000000000000000013
#02818:1313
#0281b:00130000
#02815:001300000000
#02812:000000000013000000000000
#04912:14
#04914:00140000
#05312:130000000000001300130000
#05318:130000131300
#05315:00130000
#0531b:000000000000000000000013
#05415:001300000000
#05418:00130000
#05419:003300
#0541a:000000000033000000000000
#05512:13130000
#0551b:00001313
#05518:001300000000
#05515:000013
#05612:13131300
#0561b:00000013
#05618:000013000013000000000000
#0571b:130000000000001300130000
#05715:130000131300
#05718:00130000
#05712:000000000000000000000013
#06013:143434143434000000000000
#06012:0014000000000000
#06014:0000001400000000
#06019:143434143434000000000000
#06018:0014000000000000
#0601a:0000001400000000
#06010:41
#0591b:13130000
#05912:00001313
#05915:001300000000
#05918:000013
#0611b:000000000000001300130000
#06115:000000131300
#06118:00130000
#06112:000000000000000000000013
#06218:001300000000
#06212:00130000
#06213:003300
#06214:000000000033000000000000
#0631b:13130000
#06312:00001313
#06315:001300000000
#06318:000013
#0641b:13131300
#06412:00000013
#06415:000013000013000000000000
#06512:130000000000001300130000
#06518:130000131300
#06515:00130000
#0651b:000000000000000000000013
#06712:13130000
#0671b:00001313
#06718:001300000000
#06715:000000000000000013000013
#04812:14
#04818:14
#05818:001300000000
#05815:00130000
#05814:003300
#05813:000000000033000000000000
#06615:001300000000
#0661b:00130000
#0661a:003300
#06619:000000000033000000000000
#01219:2424
#01213:00240000
#06819:2424
#06813:00240000
#00418:000000000000003333333333
#01452:53
#0145b:000000000063000000000000
#01455:000000000000000000000053
#01658:000000000053000000000000
#01655:63
#03752:0053
#0375b:63
#04854:0014
#0485a:0014
#04858:54
#04852:54
#00855:0013
#0085b:00000013
#00558:0053
#0065b:00630000
#00955:0063
#01052:00530000
#03158:6454
#03156:00240000
#0315a:00000024
#04152:63
#0415b:0063
#0225b:63
#02252:000000000053000000000000
#02258:000000000000000000000053
#02455:000000000063000000000000
#02458:53
#05058:00240000
#0505a:6444
#04954:00240000
#04952:5434
#05652:0013
#0565b:00000013
#06053:64540000
#06052:0024000000000000
#06054:0000002400000000
#06059:64540000
#06058:0024000000000000
#0605a:0000002400000000
#01253:00140000
#01259:1414
#06859:1414
#06853:00140000
#04052:54
#0405a:64
#05458:00530000
#0645b:0013
#06452:00000013
#05855:00630000
#06252:00530000
#0665b:00630000
#003350:000000000000133333333333
#004320:23
#004380:000000000000133333333333
#0053b0:23
#005380:000000000000133333000000
#0053b0:000000000000000000330023
#0063b0:000000133333000000000000
#006380:00003323
#009350:000000000000133333000000
#009320:000000000000000000330023
#010320:000000133333000000000000
#010350:00003323
#014320:13
#014350:00230000
#0143b0:000000000013000000000000
#014380:000023
#014350:000000000000000000000013
#015320:002300000000
#016350:13
#016320:00230000
#016380:000000000013000000000000
#0163b0:000023
#0223b0:13
#022380:00230000
#022320:000000000013000000000000
#022350:000023
#022380:000000000000000000000013
#0233b0:002300000000
#024380:13
#0243b0:00230000
#024350:000000000013000000000000
#024320:000023
#028350:00000013
#028340:000000000033
#028330:000000000000000000000033
#029320:23
#031380:1434
#031360:00540000
#0313a0:00000054
#032380:24
#035330:140034000034000034240000
#035391:140034000034000034240000
#0373b1:13
#037381:000000000023000000000000
#037321:0013
#037351:000000000000000000000023
#0403a1:14
#040381:000000000034340000240000
#040320:14
#040340:000000000034340000240000
#041320:13
#041350:000000000023000000000000
#0413b0:0013
#041380:000000000000000000000023
#0443a0:000000000000143434343434
#045360:24
#048320:14
#048340:0024
#048381:14
#0483a1:0024
#049321:1424
#049341:00340000
#0503a1:1424
#050381:00340000
#054381:00130000
#054391:003300
#0543a1:000000000033000000000000
#0543b1:00003323
#058351:00130000
#058341:003300
#058331:000000000033000000000000
#058321:00003323
#060331:143434343434240000000000
#060321:0054000000000000
#060341:0000005400000000
#060390:143434343434240000000000
#060380:0054000000000000
#0603a0:0000005400000000
#060350:00000013
#060340:000000000033
#060330:000000000000000000000033
#061320:23
#062320:00130000
#062330:003300
#062340:000000000033000000000000
#062350:00003323
#0663b0:00130000
#0663a0:003300
#066390:000000000033000000000000
#066380:00003323
