This file was generated by Ched 2.6.4.0.
#TITLE ""
#ARTIST ""
#DESIGNER ""
#DIFFICULTY 0
#PLAYLEVEL
#SONGID ""
#WAVE ""
#WAVEOFFSET 0
#JACKET ""
#REQUEST "ticks_per_beat 480"
#00002: 4
#BPM01: 204
#00008: 01
#TIL00: ""
#HISPEED 00
#MEASUREHS 00
#00018:000000000000000000000013
#00015:000000000000000000000000000000000000000000000013
#0011b:130013130000
#00112:130000000013001200000000
#00115:001300130000000000000000
#00118:001300000000
#00117:000012
#00114:00000012
#00119:000000000012
#00116:000000000000000000000012
#00212:130013130000
#0021b:130000000013000000000000
#00218:001300130000000000000012
#00215:001300000012
#0021c:000000000000001200000000
#00217:000012
#0021a:00000012
#0031b:130013130000
#00312:130000000013001200000000
#00315:001300130000000000000000
#00318:001300000000
#00317:000012
#00314:00000012
#00319:000000000012
#00316:000000000000000000000012
#0041b:0000000000000000000000000000000013333333333333333333333333333333
#00412:18161412
#00512:130013000000130013000013
#00514:001600000000001600000000
#0051b:000000130013000000130000
#00516:001600
#00510:41
#0061b:001300000000
#00615:003313
#00618:00000013
#00612:000000000000000000003333000000000000000000000000
#00613:0000003300000000
#00616:000000000000003300000000000000000000000000000000
#00712:1312
#00717:000013130000000000000000
#00718:000000000000140000000014
#00716:000000000000000013130000
#00714:000000000014000000000000
#00814:1413
#00817:000013130000000013000000
#0081b:0013
#00816:000000000013000000000013
#00812:00000013
#0081c:12
#00819:00000013
#0091b:130013000000130013000013
#00916:001600000000001600000000
#00912:000000130013000000130000
#00914:001600
#01018:003313
#01015:00000013
#01012:001300000000
#0101b:000000000000000000003333000000000000000000000000
#0101a:0000003300000000
#01017:000000000000003300000000000000000000000000000000
#0111b:130013130000000000000000
#01118:000000000013130000000000
#01115:000000130000000013130000
#01112:000000000000130000000013
#01317:12121212
#01319:000000000000000000000013
#0131c:00120012
#01312:0012
#01310:41
#01416:13
#01417:000013130000000000000000
#0141b:000013
#01415:000000000013000000000013
#01412:000013
#0161b:00130000
#01615:000000000000000000000013
#01612:130000130016000000000000
#01618:000000000016000000000000
#01718:160000130013000000000000
#01712:00131600
#01715:000000000000000000130013
#0171b:00000013
#01818:160013000000160000000013
#01812:00160000
#01815:000000000013000000000000
#01512:001300000000
#01912:19000013
#01915:000000130013190000000000
#01918:000000000000000000130013
#0191b:00130000
#02012:1919
#02015:000013190000000000000000
#02018:000000000013000000000000
#02117:120000120000120012000000
#02114:000000000000000000000013
#02112:00120012
#0211c:0012
#02110:41
#02217:13
#02216:000013130000000000000000
#02212:000013
#02218:000000000013000000000013
#0221b:000013
#02412:000000130016000000000000
#0241b:13130000
#02418:000000000016000000000013
#0231b:001300000000
#02512:19131300
#02515:000000000013190000130000
#02518:000000130000000000000013
#0251b:13000013
#02612:19131900
#02615:000013190000000000000013
#02618:000000000013000000000000
#0261b:1313
#0291b:000000130000000000000013
#02919:0013
#02912:000000000000000013130000
#02917:00000013
#02916:00130000
#02914:0013
#0291f:11
#03016:13000013
#03018:00130000
#0301b:130000000000000013130000
#03012:000000000000000000000013
#03015:000000000000000000000033000000000000000000000000
#03216:141400000000
#0321a:001400140000000000000000
#03215:000000000013000000130000
#03218:0013
#03212:0013
#03318:130013000000130000130000
#03315:000000130000000013000000
#0331b:00130000
#03312:00000013
#03415:130000160013160000160013
#03418:001300001300
#03614:00180000
#03616:0014
#03617:00000012
#03612:1c
#03117:1300000000130000
#03112:13000013
#03116:0013000013000000
#0311b:00131300
#0371b:130000000000000000000013
#03717:00130000
#03712:2313
#03716:00000013
#03715:000000000013000000000000
#0371f:21
#03818:130013
#0381a:000000140014000000000000
#0381b:000000000000000000130013
#03810:41
#03916:000000140014140014140014
#03918:13
#04016:14
#04012:000013130000140000000000
#04018:000000000000001400000000
#04013:000014
#04019:00000014
#04014:000000000014
#0401a:000000000000000000000014
#0401b:000013130000000000000000
#04017:000000000014000000000000
#04115:120000000012000000000000
#04119:120000000012000000000000
#0421b:13
#04212:130000140014000000130013
#04215:000013
#04318:001400001400
#04316:00141414
#04314:000000000014000000000000
#0431a:00140014
#04312:0014
#04315:13
#04412:001400140000130000000013
#04416:140014000000000013130000
#0441b:000000000000000000000000003333333333000000000000
#0451b:130000000000130000130013
#04514:00140000
#04512:000000000014000000130000
#04516:001400000000000000000000
#04519:001300000000
#04517:001300
#0461b:000000000000000000130013
#04612:13001313
#04618:00140000
#04616:001400001300000000000000
#04614:001300000000
#0461a:000000000014000000000000
#04717:1313
#04712:001300001300
#04716:00130013
#0471b:000000000013000000000013
#04817:13
#04816:000000000013130000000013
#04914:130000000013000000000000
#04915:001300000000
#04913:00130000
#04912:0013
#0491b:000000000000000000000013
#04919:00130000
#04917:0013
#05019:130000000013000000000000
#0501a:001300000000
#05018:00130000
#05017:0013
#05012:000000000000130000000013
#05014:00130000
#05116:13
#0511b:000000000013000000000000
#05117:0013
#05113:000000000000000000000013
#05110:41
#05216:1313
#0521a:001300000000
#05217:00130000
#05213:000000000013000000000000
#05215:00000012
#05219:00000012
#05315:001600001600001600000000
#05312:230013000000130013000013
#0531b:000000130013000000130000
#0541b:001300000000
#05415:003313
#05418:00000013
#05412:000000000000000000003333000000000000000000000000
#05413:0000003300000000
#05416:000000000000003300000000000000000000000000000000
#05512:13000013
#05518:000013000000140000000014
#0551b:00130000
#05515:000013
#05514:000000000014000000000000
#05614:14
#05618:001300000000
#0561b:000000130000000013000000
#05617:0013
#05616:00000013
#05612:000000000013000000000000
#05712:000000120012000000130000
#0571b:000000000000000000000013
#05716:001600000000001600000000
#0571c:121200121200
#05714:001600
#05812:001300000000
#05818:003313
#05815:00000013
#0581b:000000000000000000003333000000000000000000000000
#0581a:0000003300000000
#05817:000000000000003300000000000000000000000000000000
#0591b:1313
#05915:001300131300
#05918:000000130013000000000000
#05912:000000130000000000130013
#06018:001300001300230000000000
#06015:230013000013000000000000
#06012:00232313
#0601b:230000000000230000000000000000000000003333333333
#06010:41
#06115:160013160000160013160000
#0611b:001300000000001300000000
#06112:000000001300000000000013
#06118:000000000013000000000000
#0621b:001300000000
#06215:003313
#06218:00000013
#06212:000000000000000000003333000000000000000000000000
#06213:0000003300000000
#06216:000000000000003300000000000000000000000000000000
#06312:130013
#0631b:001300000000
#06318:000000130000140000000014
#06315:00000013
#06314:000000000014000000000000
#06414:14
#0641b:000013000013000000000000
#06418:00130013
#06412:0013
#06415:000013
#06612:001300000000
#06618:003313
#06615:00000013
#0661b:000000000000000000003333000000000000000000000000
#0661a:0000003300000000
#06617:000000000000003300000000000000000000000000000000
#0671b:13131300
#06718:001300001300
#06715:000000000013000000000013
#06712:00131313
#06514:160000000012160000000000
#06512:001200000000001200000000
#0651a:001200001200
#06516:00160016
#0651c:000000001200000000000012
#02715:190000000000000000130013
#02718:000000130013000000000000
#02712:13131900
#0271b:00001313
#02815:190000000013190000000000
#02818:000000001300000000000000000000000000000000130000
#02812:130000000000190000000000130000000000003333333333
#0281b:000000000000130000000000000000000000133333003333
#03518:000000000016000000000016
#03516:00000016
#03512:001600001600
#03515:16
#01212:2c2c2c00
#06812:2c2c2c00
#0015b:43
#00252:33
#0035b:43
#00652:0033
#00658:00000053
#0055b:00000013
#00552:000000000000000000000013
#00952:00000013
#0095b:000000000000000000000013
#01055:00000063
#0105b:0043
#01456:53
#01457:00530000
#01455:000000000013000000000000
#0145b:000013
#01555:0043
#01552:00000033
#01658:330000000056000000000000
#01652:000000000056000000000000
#01758:46
#01752:0036
#01858:4646
#01852:00360000
#01952:39
#01955:0049
#02052:3939
#02055:00490000
#02257:63
#02256:00630000
#02258:000000000013000000000000
#02252:000013
#02458:000000000066000000000000
#02452:000000000066000000000000
#02455:43
#02358:0033
#0235b:00000043
#02552:39
#02555:0049
#02652:3939
#02655:00490000
#02952:33
#0295b:43
#0375b:53
#03752:0053
#03757:00230000
#03756:00000023
#0385a:000000000044000000000000
#03856:000000000033000000000000
#0535b:00000013
#05352:130000000000000000000013
#05458:00000053
#05452:0033
#05752:00000013
#0575b:000000000000000000000013
#0585b:0043
#05855:00000063
#03956:00003444
#04056:34
#04356:00141414
#04857:53
#04856:0053
#04952:0053
#04957:0013
#05057:0053
#05052:0013
#05156:53
#05157:0053
#05256:53
#05257:00530000
#05259:00000042
#05255:00000032
#06155:00000016
#06152:000000000000000000000013
#06258:00000053
#06252:0033
#06655:00000063
#0665b:0043
#01252:4c3c4c00
#06852:4c3c4c00
#02755:49
#02752:0039
#02855:4949
#02852:00390000
#0285b:00000053
#02858:0000000000000023
#03052:0033
#0045b:0023
#00452:38363432
#03152:53
#03156:0023000000000000
#0315b:0063
#03157:0000000000230000
#04252:000000000034000000000000
#04257:000000000043000000000000
#0455b:0013
#04652:0013
#04757:1313
#04756:00130013
#06556:00000016
#0655c:000000000000000000000012
#0085b:0013
#00852:00000013
#06452:0013
#06458:00000013
#05657:0013
#05656:00000013
#0043b0:1300000000000000330000000000000033333333333333333333333333333333
#005360:28
#006370:00130000
#006360:000000000000003300000000000000000000000000000000
#006350:003300
#006330:0000003300000000
#006320:000000000000000000003333230000000000000000000000
#006380:00000013
#0073b0:23
#010360:00130000
#010370:000000000000003300000000000000000000000000000000
#010380:003300
#0103a0:0000003300000000
#0103b0:000000000000000000003333230000000000000000000000
#010350:00000013
#011320:23
#011380:000000000000000000130023
#014360:13
#014320:002300000000
#014370:00130000
#0143b0:000000000023000000000000
#015380:000013000033000000230000
#0153b0:000000333300
#015321:000000000013000000000000
#015351:0023
#015351:000013
#015321:00000023
#0153b1:000000000000000000000013
#016381:23
#016321:000000000016000000000000
#016351:000023
#016380:000000000016000023000000
#022370:13
#0223b0:002300000000
#022360:00130000
#022320:000000000023000000000000
#023350:000013000033000000230000
#023320:000000333300
#0233b1:000000000013000000000000
#023381:0023
#023381:000013
#0233b1:00000023
#023321:000000000000000000000013
#024351:23
#024381:000000000016000023000000
#024320:000000000016000000000000
#024350:000023
#028370:00000013
#028320:000000000000000000000000000000000000003333333333
#029320:23
#0283b1:000000000000000000000000000000000000133333003333
#028381:0000000000000033
#0293b1:23
#030351:000000000000000000001333000000000000000000000000
#030321:0023
#031321:13230000
#031361:0053000000000000
#0313b1:00001323
#031371:0000000000530000
#0373b1:1323
#037371:00530000
#037320:0013
#037360:00000053
#038320:23
#038360:000000130023000000000000
#038320:000013
#038350:000000000000000000330033
#039320:23
#0413b0:000000000000120000000022
#041331:000000000000120000000022
#042371:000000130023000000000000
#0423b1:000013
#042381:000000000000000000330033
#0433b1:23
#044361:0013
#0443b1:000000000000000000000000003333333333230000000000
#048371:13
#048321:0023
#048360:0013
#0493b0:23
#049320:0013
#050360:23
#050370:0013
#0513b0:23
#051361:13
#051321:0023
#051370:0013
#0523b0:23
#052361:13
#052321:00230000
#052370:00130000
#0523b0:0023
#054370:00130000
#054360:000000000000003300000000000000000000000000000000
#054350:003300
#054330:0000003300000000
#054320:000000000000000000003333230000000000000000000000
#054380:00000013
#0553b0:23
#055320:000013230000000000000000
#0553b0:000000000000000013230000
#056320:000013230000000000000000
#058360:00130000
#058370:000000000000003300000000000000000000000000000000
#058380:003300
#0583a0:0000003300000000
#0583b0:000000000000000000003333230000000000000000000000
#058350:00000013
#059320:23
#059380:000000000000000000130023
#060370:00000013
#0603b0:000000000000000000000000000000000000003333333333
#0613b0:23
#062370:00130000
#062360:000000000000003300000000000000000000000000000000
#062350:003300
#062330:0000003300000000
#062320:000000000000000000003333230000000000000000000000
#062380:00000013
#0633b0:23
#063350:000013230000000000000000
#063380:000000000000000013230000
#064350:000013230000000000000000
#066360:00130000
#066370:000000000000003300000000000000000000000000000000
#066380:003300
#0663a0:0000003300000000
#0663b0:000000000000000000003333230000000000000000000000
#066350:00000013
#067320:23
#0673b0:000000000000000000130023
