This file was generated by Ched 2.6.2.0.
#TITLE ""
#ARTIST ""
#DESIGNER ""
#DIFFICULTY 0
#PLAYLEVEL
#SONGID ""
#WAVE ""
#WAVEOFFSET 0
#JACKET ""
#REQUEST "ticks_per_beat 480"
#00002: 4
#BPM01: 204
#00008: 01
#TIL00: ""
#HISPEED 00
#MEASUREHS 00
#0051a:14
#00512:0014
#00510:41
#00912:14
#00918:0014
#0141a:14
#01512:14
#01518:0014
#0331a:14
#03314:0014
#03418:14
#03414:0014
#03914:14
#0391a:00140000
#03912:0014
#03918:00000014
#03714:0014
#0371a:24
#0371f:21
#00618:14
#01014:14
#0131a:14
#01314:0014
#01310:41
#01612:14
#01812:0014
#0201a:0014
#02212:14
#0231a:14
#02314:0014
#02112:14
#02118:0014
#02110:41
#0241a:14
#0261a:0014
#02812:0014
#03116:1434
#03212:0014
#04012:14
#0401a:0014
#04318:14
#04312:00140000
#0431a:0014
#04314:00000014
#04118:0014
#04112:14
#0441a:14
#04412:0014
#0451a:14
#04612:14
#04718:14
#04814:14
#0491a:1414
#04914:00140000
#05012:1414
#05018:00140000
#05213:14
#05219:14
#05612:14
#05618:00140000
#05614:0014
#0561a:00000014
#05712:14
#0571a:0014
#05312:0014
#05318:24
#05512:14
#05518:0014
#05814:14
#0591a:14
#05912:00140000
#05918:0014
#05914:00000014
#0511a:14
#05114:14
#05112:0014
#05118:0014
#05110:41
#05418:14
#0641a:14
#06414:00140000
#06418:0014
#06412:00000014
#0651a:14
#06512:0014
#0611a:0014
#06114:24
#0631a:14
#06314:0014
#06618:14
#06712:14
#0671a:00140000
#06714:0014
#06718:00000014
#06214:14
#0291f:11
#03810:41
#06010:41
#01252:0014
#03156:24
#0455a:64
#04652:54
#04758:54
#04854:64
#05854:64
#05458:54
#06658:54
#06254:64
#05358:14
#05752:14
#06154:14
#0655a:14
#0013a0:14
#002380:24
#003320:14
#004340:24
#007340:1424
#0083a0:1424
#011380:1424
#012320:14342400
#0173a0:14
#018380:24
#019320:14
#020340:24
#025320:14
#026340:24
#0273a0:14
#028380:24
#029380:14
#0293a0:0024
#030340:14
#030320:0024
#031360:1434
#032340:28
#035320:14
#036320:24
#0353a1:14
#0363a1:24
#0383a1:14
#038381:0024
#042321:14
#042341:0024
#0453a1:14
#045381:0024
#046321:14
#046341:0024
#047381:14
#0473a1:0024
#048341:14
#048321:0024
#054381:14
#0543a1:0024
#058341:14
#058321:0024
#060381:14342400
#062341:14
#062321:0024
#066381:14
#0663a1:0024
#068341:14342400
