This file was generated by Ched 2.6.2.0.
#TITLE ""
#ARTIST ""
#DESIGNER ""
#DIFFICULTY 0
#PLAYLEVEL
#SONGID ""
#WAVE ""
#WAVEOFFSET 0
#JACKET ""
#REQUEST "ticks_per_beat 480"
#00002: 4
#BPM01: 190
#00008: 01
#TIL00: ""
#HISPEED 00
#MEASUREHS 00
#00219:1400000000000014
#00413:1400000000000014
#00619:14
#00713:14
#01419:14
#01513:14
#02219:14
#02313:14
#04218:2616
#0421f:21
#04312:1616
#04418:16
#04412:0016
#04410:41
#05813:14
#0601a:14
#06114:14
#06218:14
#06312:14
#07513:14
#07619:14
#07713:14
#07819:14
#07912:14
#07918:0014
#08318:14
#08414:14
#0851a:14
#08619:0014
#08613:14
#08713:14
#04019:14
#04013:0014
#04119:14
#00819:14
#00913:14
#01619:14
#01613:0000000000000014
#02419:14
#02519:14
#03013:14
#03119:14
#03213:14
#03313:14
#03310:41
#03819:1414
#03913:1414
#04518:16
#04618:16
#04612:0016
#04718:16
#04712:0016
#05012:2616
#05118:1616
#05212:16
#05218:0016
#05312:16
#05412:16
#05418:0016
#05512:16
#05719:14
#05913:14
#06619:14
#06814:14
#06918:14
#06910:41
#06513:14
#06719:14
#07219:14
#07313:14
#07419:14
#0341f:11
#05619:24
#06413:24
#01010:41
#01810:41
#02610:41
#010380:1500003500003500
#011380:0035000025000000
#012330:1500003500003500
#013330:0035000025000000
#018390:14
#019390:24
#020330:14
#021330:24
#026330:14
#027330:24
#028390:14
#029390:24
#034390:14
#035390:24
#036330:14
#037330:24
#048380:1600000000000026
#070340:14
#071340:0024
#080320:14
#082320:24
#087390:0014
#089390:00240000
