This file was generated by Ched 2.6.2.0.
#TITLE ""
#ARTIST ""
#DESIGNER ""
#DIFFICULTY 0
#PLAYLEVEL
#SONGID ""
#WAVE ""
#WAVEOFFSET 0
#JACKET ""
#REQUEST "ticks_per_beat 480"
#00002: 4
#BPM01: 190
#00008: 01
#TIL00: ""
#HISPEED 00
#MEASUREHS 00
#00913:001a
#00914:0012000000000000
#00919:00120000
#00912:0000001200000000
#01018:0013000013000013
#01012:23130013
#0101b:2300001300001300
#01015:0000001300130000
#01010:41
#01116:0000000000130000
#01119:00000000000000000000001300000000
#01112:1313
#0111b:0013000013000000
#01118:00130000
#01115:0013001300000000
#01114:00000013
#01215:0013000000130000
#01218:00131313
#01212:0000001300000013
#0121b:13
#01315:0013000000131313
#01318:00000000130000000000001300130000
#0131b:1313
#01312:0000001300000000
#0141a:14
#01412:1400000000000013
#0141b:00130000
#01416:0000001300000000
#01419:0013
#01417:00000013
#01414:0000000000130000
#0151b:13001313
#01515:0013000013001300
#01518:00000013000013000000130000001300
#01512:0000130000130013
#0161b:1300130000000013
#01618:0013000000000000
#01615:0000001600000000
#01619:0000000000130000
#01612:0000000000000013
#01614:0000000000130000
#01712:0013001300002300
#01715:00000000130000000013001300000000
#01718:0000000013130000
#0171b:00000023
#01918:0000000000000013
#01915:00000013
#01917:0013000000000000
#01912:0013
#0191b:0000000000130000
#02012:1300000000001313
#02015:0000131300000000
#02018:0000000000001313
#0201b:0000131300000000
#02212:13
#02216:00130000
#02217:0000000000000013
#0221b:0000131300000000
#02214:00000013
#02112:0000000000000013
#02115:0013000000000000
#0211b:0013000000000000
#02117:0000000000000013
#02312:0000000000000013
#02412:1300000000130000
#0241b:0000131300130000
#02416:0000001300000000
#02417:13
#02515:0000001300000013
#02518:00000000000000130000000013000000
#02512:0013
#0251b:0000000000130000
#03318:000000130000130000000000000000000000000014000000
#03315:16000013000000000000000000000000
#03312:000000000000000000130000000000000000000000001400
#0331a:0014
#03314:000000000000001400000000
#03319:000014
#03313:00000014
#0331b:0000001300000000
#03310:41
#03515:0013000000130000
#03518:00130000
#03512:0000001300000000
#0351b:00001313
#03516:00000013
#03617:00130000
#03619:13
#03615:0013
#0361b:0013
#03612:0000000000001313
#03812:00130013
#0381b:0013000000001300
#03815:2300000013000013
#03818:00130000
#0391b:00130013
#03918:2300000013000013
#03912:0013000000001300
#03915:00130000
#04117:0012
#04116:00000033000000000000000000000000
#04115:0033000000000000
#04113:00330000000000000000000000000000
#04215:0013130000130000
#04212:2300000013000013
#04218:2300001313000013
#0421b:0000130000130000
#0421f:21
#0451b:00002300000013001300001300000000
#04512:0013000000000013
#04516:0013
#04518:13
#04617:1313
#04612:13000000000013001300001300000000
#0461b:0000000000000013
#04715:0013
#04718:0000000000130000
#04712:0000001300001300
#04716:13
#0471b:1300001300000013
#05612:00130013
#05618:00130000
#05617:0000000000000013
#0561b:2313
#05615:23
#05719:0013000000000000
#0571b:0000001300000000
#05716:0013000000000000
#05712:00000013
#0681b:1300000000000013
#06812:0000001313000000
#06817:0013
#06916:0014000000000000
#06912:0000001300000000
#06914:00130000
#06919:1300000000120000
#06917:00000012
#06915:0000000000000012
#0691b:0012
#06910:41
#07114:00000013
#07119:00000013
#08612:0000000000120000
#08615:0000001200001200
#08618:0000000000000012
#08619:0000001200000000
#0871c:12
#08719:0012000000000000
#08716:00120000
#08715:0000000012000013
#08712:0000001200001300
#08718:0000000000120023
#0871b:00000023
#0891b:13
#08915:00130000000000000000000000000000
#08918:0013000000000000
#08912:00000013000000000000000000000000
#03415:00130000
#03418:1313
#03412:0013
#0341b:0000000000001313
#0341f:11
#03718:0013000000130013
#03715:00000000130000000000001300000000
#0371b:0000001300001300
#03712:00001313
#07014:0000001212000000
#0701a:0000001212000000
#07013:12
#0081b:12120000
#00815:0012000000000000
#00812:0000001200000000
#0081a:0000000000120000
#0081c:0000000000000012
#00814:0000000000120000
#00818:0000001200000000
#00816:0000000000000012
#00112:0000001300000013
#0011b:0013
#00115:0000000000130000
#00118:00000013
#00217:00130013
#0021b:2300000013000013
#00215:0000000000000013
#00212:00130000
#00216:2313
#00416:00130000
#00412:2300000013000013
#00415:0000000000130000
#00418:0000000013000013
#0041b:00130000
#00417:23
#0051b:0000001300000013
#00515:0013001300000000
#00615:13
#00612:0000001300000013
#00618:0000001300000000
#00718:13
#0181b:13000013
#01818:00000013000000000000000000000000
#01812:00000000000000000013000000000000
#01815:0000001300000000
#01816:13
#01810:41
#0031b:0000001300000013
#00312:0013
#00318:0013000000130000
#00315:00000013
#04315:1300000000130000
#04312:0023001300000000
#04318:0013
#0431b:0013000000001300
#06016:0012
#06015:13000012
#0601b:13
#06018:0022
#06019:00000022
#06114:12
#06113:00120000
#06112:0012
#0611a:22
#0611b:00220000
#0611c:00002222
#06214:0000000000000000000000000013000000130000001300000013000000130000
#06213:00000000000013131313131313131313
#06219:0000000000000000000000000013000000130000001300000013000000130000
#0621a:00000000000013131313131313131313
#0621b:0000000000000000000000000000001300000013000000130000001300000013
#06212:0000000000000000000000000000001300000013000000130000001300000013
#04418:0013130000130000
#0441b:2300000013000013
#04415:2300001313000013
#04412:0000130000130000
#04410:41
#04815:1614
#04817:0000001400000000
#0481a:0000140000140000
#04812:00140014
#04814:0000000000000018
#0491b:0000001300000013
#04912:0013
#04918:0000000000130000
#04915:00000013
#0501b:0000130000001313
#05015:0000000000001313
#05019:0000001300000000
#05017:2313
#05012:2313
#05016:00130000
#05118:1300000000130000
#0511b:0023001300000000
#05115:0023000013000000
#05112:13000013
#05212:0000130000130013
#05218:0000000000000013
#05217:0000130000130000
#05216:2313
#0521b:2313
#05219:0013000000000000
#05315:1300001313000000
#0531b:1300001313000013
#05312:00002300000000000000001300000000
#05317:00000000000000000000001300000000
#05316:0000000000000000000000000000000000000000000000000000001300000000
#05318:0023000000000000
#0741b:00130000
#07417:2300001300000000
#07412:1300001300001300
#07415:0000000000130013
#07418:00000013
#0751b:0013000000001300
#07512:00000000000000001300000000130000
#07518:1300130013000013
#07515:00001300000013000000130000000013
#0581b:00130013
#05815:00130000
#05816:0000000000000013
#05812:2313
#05817:23
#05914:0013000000000000
#05912:0000001300000000
#05917:0013000000000000
#0591b:00000013
#06517:0013000000130000
#06512:0013000000001300
#0651b:0000001300001300
#06516:0000001300000000
#06418:00130000
#0641b:0000000013001313
#06412:0013000000130000
#06415:0000001300000000
#06416:0000000000001313
#0641a:24
#0661b:0000130000000013
#06615:0000130013000013
#06618:00000013
#06612:24
#06718:0013000000000000
#06712:0013000000001300
#06715:0000000000000013
#0731b:13
#07316:13
#0791b:1313
#07912:1313
#07918:0014000000000014
#07916:00140014
#07914:0000001400140000
#08012:13
#0801b:1300001323000000
#08016:0000001323000000
#07612:23130000
#07616:0000001300000000
#0761b:1300001300001300
#07618:0000000000130013
#07615:00000013
#07715:1300130013000013
#07718:00001300000013000000130000000013
#07712:0013000000001300
#0771b:00000000000000001300000000130000
#07815:0000000000130013
#0781b:23130000
#07812:1300001300000000
#07818:0000001300001300
#08215:0000130000130000
#08212:2300001300001300
#0821b:0013000000001300
#08218:1300000000000013
#08217:0000001300000000
#08315:13000000130000001300000000130000
#08318:0013001300130013
#08312:00001300000000000000000000000013
#0831b:00001313
#08812:00000000000000130000000000000000
#08418:0000130000130000
#0841b:2300001300001300
#08416:0000001300000000
#08415:1300000000000013
#08412:0013000000001300
#02715:0000000000000013
#02718:00000013
#02716:0013000000000000
#0271b:0013
#02712:0000000000130000
#0281b:0000001300000013
#02818:00000013
#02815:0000001300000013
#02812:00130013
#0301b:2300000000000013
#03012:0000001300000013
#03016:00130000
#03019:00000013
#02612:13000013
#02618:0000001300000000
#02617:13
#0261b:00000000000000000013000000000000
#02615:00000013000000000000000000000000
#02610:41
#02918:0013000000000000
#02912:0013000000000000
#02917:0000000000000013
#0311b:0000000000000013
#03118:13
#03112:0013000000000000
#03115:00130000
#0321b:13
#03212:0000131300000000
#03215:0000000000130000
#03218:0000000000130000
#04018:0016002300000000
#04012:0023000016000000
#04019:00000013
#04015:23
#0401b:0023
#04014:00000023
#05418:0000001313000000
#05412:0000001313000013
#0541b:13000000000000000000001300000000
#05416:00000000000000000000001300000000
#05417:0000000000000000000000000000000000000000000000000000001300000000
#05512:13
#05514:00001212
#0551a:00001212
#08117:00130000
#08112:00130000
#08518:13131414
#08514:0000000000140014
#08515:0013001300000000
#0851b:0013000000000000
#0631a:13131313000000000033000000000000
#0631b:0000001300000013000000000000000000000000000000000000000000000000
#06319:0013000000130000000000000000000000000000330033000000000000000000
#06313:13131313000000000000000000003333
#06312:0000001300000013000000000000000000000000000000000000000000000000
#06314:0013000000130000000000000000000000000000000000000000330000000000
#06315:0000001300000000
#07212:23
#07217:23
#00957:00000012
#00953:006a
#01252:0000001300000000
#0125b:13
#01258:00000013
#01355:0013000000000000
#0135b:0013
#0155b:13
#03556:00000053
#0355b:00000013
#03455:00130000
#03458:13
#03657:00130000
#03659:13
#04157:0012
#07054:0022
#0705a:0022
#01957:0023000000000000
#01852:00000000000000000023000000000000
#01858:00000023000000000000000000000000
#0185b:53000053
#01855:0000005300000000
#02058:0000000000000053
#02052:0000000000000053
#00255:0000000000000063
#00458:0000000000000053
#04657:1353
#04652:00000000000000000000005300000000
#04556:0063
#0455b:00004300000000000000006300000000
#04558:23
#04756:13
#04252:0000000000000063
#04355:23
#04352:0033000000000000
#06254:0000000000000000000000000023000000230000002300000023000000230000
#06253:00000000000053535353535353535353
#06252:1200000000000000000000000000002300000023000000230000002300000023
#0625c:12
#06259:0000000000000000000000000023000000230000002300000023000000230000
#0625a:00000000000063636363636363636363
#0625b:0000000000000000000000000000002300000023000000230000002300000023
#0445b:0000000000000053
#04855:16
#04854:0000000000000018
#0505b:0000000000000053
#05055:0000000000000053
#05158:23
#0515b:0043000000000000
#05152:23
#05155:0043000000000000
#05252:0000000000000063
#05258:0000000000000063
#05355:23
#0535b:23
#05352:00003300000000000000005300000000
#05358:0033000000000000
#05356:0000000000000000000000000000000000000000000000000000002300000000
#05756:0063000000000000
#0575b:0000006300000000
#05757:00000013
#05652:00530000
#0565b:0063
#0585b:00630000
#05852:0053
#05952:0000005300000000
#05957:0053000000000000
#05956:00000013
#06552:00000033
#06556:0000005300000000
#06655:0063
#0665b:00630000
#06857:0043
#0685b:63
#06755:0000000000000023
#06752:00000063
#0735b:23
#07356:23
#07452:63
#0765b:53
#0805b:6353
#08056:0053
#07852:63
#07858:0000005300000000
#08258:53
#0825b:0023000000000000
#08252:00000013
#08358:0013000000000000
#08355:0013
#0835b:00000013
#08755:0000000000000063
#08852:00000000000000230000000000000000
#08455:63
#08452:0023000000000000
#0845b:00000013
#02452:0000000000630000
#0245b:0000000000630000
#02155:0023000000000000
#0215b:0023000000000000
#02352:0013000000000000
#0235b:0000001300000000
#02257:0000000000000013
#0225b:0000002300000000
#0285b:0000000000000063
#02855:0000000000000063
#0305b:0000000000000063
#03052:0000002300000033
#02756:0023000000000000
#02652:63000063
#02658:0000006300000000
#0265b:00000000000000000023000000000000
#02655:00000023000000000000000000000000
#02958:0023000000000000
#02952:0023000000000000
#03255:0000000000530000
#03258:0000000000530000
#00655:13
#00758:13
#01752:00000033
#0175b:00000043
#03158:23
#0315b:0043000000000000
#03152:0053003300000000
#03155:00230000
#03955:00630000
#03858:00630000
#04058:0046000000000000
#04052:0036
#05452:33
#05457:0000000000000000000000000000000000000000000000000000002300000000
#0545b:00000000000000000000005300000000
#0555b:43
#07252:53
#07257:53
#08157:00230000
#08152:00230000
#0635a:63636363000000000000000000000000
#0635b:0000002300000023000000000000000000000000000000000000000000000000
#06359:0023000000230000000000000000000000000000000000000000000000000000
#06353:53535353000000000000000000000000
#06352:0000002300000023000000000000000000000000000000000000000000000000
#06354:0023000000230000000000000000000000000000000000000000000000000000
#08555:0013000000000000
#002350:0000000000000013
#003320:0023000000000000
#004380:0000000000000013
#0053b0:0023000000000000
#005380:00000000000000001300002300000000
#005321:00000000000000000000001300002300
#006351:00000000000000001300002300000000
#0063b0:00000000000000000000001300002300
#009330:001a
#009370:00000022
#016350:13230000
#016320:0033000000000000
#017380:0013002300000000
#0173b0:00330000
#0183b0:1300002300000000
#018380:00000053000000000000000000000000
#018351:0000001300002300
#018321:00000000000000000053000000000000
#0183b0:00000013
#019370:0053000000000000
#0193b0:0023
#020320:0000000000000013
#021350:0053000000000000
#021320:0000002300000000
#020381:0000000000000013
#0213b1:0053000000000000
#021381:0000002300000000
#0223b1:0000001300000000
#022371:00000023
#022321:0000000000000013
#023321:0023000000000000
#0233b0:0013002300000000
#024320:0000000000130000
#024350:0000000000000023
#0243b1:0000000000130000
#024381:0000000000000023
#026321:1300002300000000
#026351:00000053000000000000000000000000
#026380:0000001300002300
#0263b0:00000000000000000053000000000000
#026321:00000013
#027361:0053000000000000
#027321:0023
#0283b1:13
#028381:00230000
#0283b1:0000000000000013
#029381:0053000000000000
#0293b1:0000002300000000
#028350:0000000000000013
#029320:0053000000000000
#029350:0000002300000000
#029320:0000000000000013
#030320:23
#0303b0:0000132300000000
#030321:0000001300000000
#030361:00000023
#0303b1:0000000000000013
#031381:53
#0313b1:0023000000000000
#031320:0013002300000000
#031350:00530000
#031360:0000000000000013
#032330:23
#032370:00130000
#0323a0:0000002300000000
#032350:0000000000130000
#032320:0000000000000023
#032381:0000000000130000
#0323b1:0000000000000023
#034361:0000000000001323
#035361:00000013
#036321:53230000
#036371:0000000000001323
#038381:00130000
#0383b1:0023
#039351:00130000
#039321:0023
#041321:13
#041331:00330000000000000000000000000000
#041351:0033000000000000
#041361:00000033000000000000000000000000
#041381:00230000
#042321:0000000000000013
#043351:53
#043321:0023000000000000
#0443b1:0000000000000013
#045381:53
#0453b1:0023000000000000
#045361:0013
#045321:00000000000000000000002300000000
#0453b0:00000000000000000000001300000000
#045370:0000000000000023
#046370:0013
#0463b0:00000000000000000000002300000000
#046321:00000000000000000000001300000000
#046361:0000000000000023
#0503b1:0000000000000013
#051381:53
#0513b1:0023000000000000
#050350:0000000000000013
#051320:53
#051350:0023000000000000
#052320:0000000000000013
#053350:53
#053320:0023000000000000
#052381:0000000000000013
#0533b1:53
#053381:0023000000000000
#053321:00000000000000000000001300000000
#053361:0000000000000000000000000000000000000000000000000000005300000000
#054321:23
#0543b1:00000000000000000000001300000000
#054371:0000000000000000000000000000000000000000000000000000005300000000
#0553b1:23
#056321:00130000
#056361:0023
#0563b0:0013
#056370:00000023
#057360:0013000000000000
#057320:0000005300230000
#0573b1:0000001300000000
#057371:0000000000532300
#0583b1:00130000
#058371:0023
#058320:0013
#058360:00000023
#059370:0013000000000000
#0593b0:0000005300230000
#059321:0000001300000000
#059361:0000000000532300
#061321:00000012
#062321:22
#0613c0:00000012
#0623c0:22
#062330:00000000000013535353535353535353
#062340:0000000000000000000000000053000000530000005300000053000000530000
#062320:0000000000000000000000000000005300000053000000530000005300000053
#063330:53535353230000000000000000000000
#063340:0053000000530000000000000000000000000000000000000000000000000000
#063320:0000005300000053000000000000000000000000000000000000000000000000
#0623a1:00000000000013535353535353535353
#062391:0000000000000000000000000053000000530000005300000053000000530000
#0623b1:0000000000000000000000000000005300000053000000530000005300000053
#0633a1:53535353230000000000000000000000
#063391:0053000000530000000000000000000000000000000000000000000000000000
#0633b1:0000005300000053000000000000000000000000000000000000000000000000
#0633b1:0013
#0633a1:00000000000000000033000000000000
#063391:00000000000000000000333300000000
#063381:00000023
#063350:00000013
#063340:00000000000000000000000000330000
#063330:00000000000000000000000000003333
#064320:23
#065360:0000001300000000
#065320:0000000000230000
#0663b0:00130000
#066380:0023
#066351:0013
#066321:00000023
#0673b1:0000001323000000
#067350:0000000013230000
#067381:0000000000132300
#067320:00000013
#067350:0000000000000053
#068320:23
#0683b1:13
#068371:0000002300000000
#070341:0012
#071321:0026
#0703a0:0012
#071380:0026
#072370:13
#0733b0:53
#073370:00000023
#072321:13
#073361:53
#073321:00000023
#074321:13
#074361:00230000
#0763b1:13
#076371:00230000
#078321:13
#078351:00230000
#078381:0000001300000000
#0783b1:0000000000230000
#0803b1:13
#080371:00230000
#080361:0013
#081321:00530000
#081361:00000023
#0803b0:0013
#081370:00530000
#0813b0:00000023
#082380:13230000
#0823b0:0053000000000000
#084350:13230000
#084320:0053000000000000
#086350:12220000
#086391:12220000
#087351:0000000000000013
#088321:00000000000000530000000000000000
#089351:23
