This file was generated by Ched 2.6.2.0.
#TITLE ""
#ARTIST ""
#DESIGNER ""
#DIFFICULTY 0
#PLAYLEVEL
#SONGID ""
#WAVE ""
#WAVEOFFSET 0
#JACKET ""
#REQUEST "ticks_per_beat 480"
#00002: 4
#BPM01: 190
#00008: 01
#TIL00: ""
#HISPEED 00
#MEASUREHS 00
#01615:1300001300000013
#01618:0013000000000000
#0161b:0000000000000013
#01915:0000000000000013
#01918:00000013
#01912:0000000000130000
#0201b:13
#02015:0000130000000013
#02018:0000001300001300
#02112:0000000000000013
#02215:00130000
#0221b:0000001300000000
#02218:13
#02212:0000000000000013
#02318:0013000000000000
#02312:0000000000000013
#02515:0000001313001300
#02518:00000000000000130000000000001300
#0251b:0000000000130000
#03515:00130013
#03518:0000001300000000
#0351b:0000000000131300
#03512:0013
#03918:00000013
#03915:2300000000000013
#0391b:0013000000000000
#04018:13
#04019:0000141400000000
#04013:0000000000141400
#04215:00131313
#04218:2300000000130013
#0421b:00130000
#04212:23
#0421f:21
#04615:1300000000000013
#04618:0013
#04612:0000001300000000
#04715:0013
#04718:1300000000130000
#04712:00000013
#0471b:0000001300000013
#05612:00130000
#0561b:23000013
#05615:2300000000000013
#0681b:0000000000000013
#06818:13
#06812:13
#06918:0013001300130000
#06912:00131300
#06915:13000013
#0691b:0000000000000013
#06910:41
#0861b:0000000000130000
#08615:00000013
#08618:0000000000000013
#08712:13000013
#08718:0013000000130000
#08715:00131300
#0871b:0000001300000000
#01412:1400000000000014
#01418:00140000
#01414:0000001400000000
#01419:0014
#01413:0000000000140000
#0141a:00000014
#03415:00000013
#0341f:11
#03812:0013000000000000
#03815:00000013
#03818:2300000000000013
#0081b:13130000
#00815:0013000000000013
#00812:0000001300000000
#00818:0000000000130000
#00118:0000001300130000
#00115:00001313
#00215:00130000
#00212:2313
#00218:00001313
#0021b:23130000
#00512:0000001300000000
#00518:00000000000000000000003300003300
#04515:0013
#0451b:0000001300000000
#04518:0000000000000013
#04512:0023000000000000
#0631b:0013
#06315:1616000000130000
#06312:0000000000000013
#06314:00160000000000000000000000000000
#06316:00000016000000000000000000000000
#06318:00000013
#04312:0000001300130000
#04318:00001313
#0431b:0023000000000000
#0441b:13
#04415:1300000000130013
#04418:00131313
#04412:00130000
#04410:41
#04815:13
#04812:0000000000000013
#0481b:00130000
#04816:0000001300000000
#04819:0013
#04814:0000000000130000
#04817:00000013
#0491b:0000001300000013
#04915:00001313
#04918:0000000000130000
#0501b:0000130000000013
#05015:00130013
#05012:2313
#05018:0000000000130000
#07415:23130000
#07418:0013001300000013
#0741b:0000000000130000
#07412:0000001300001300
#0751b:0013001300000000
#07515:00130000
#07512:13001313
#07518:0000000000130000
#05715:0013000000000000
#0601b:13
#06015:1313
#06018:0023
#06019:00000033
#06014:00000033
#06418:0000130013000013
#0641b:00000013
#06415:0013001300000000
#06412:0000000000130013
#0641a:24
#0651b:0000001300000000
#06516:0014000000000000
#06515:0000001300000000
#07918:0013001300000013
#07912:00130000
#07915:13001313
#0791b:0000000000130000
#08015:13
#08018:0023
#02418:13
#0241b:0000131300000000
#02412:13
#02415:0000001300000000
#00315:0000001300130000
#00318:00001313
#00418:00130000
#0041b:2300000000130000
#00415:00001313
#00412:23130000
#0061b:0000001300000000
#00615:00000000000000000000003300003300
#00918:0013000000000000
#00915:0000001300000000
#01018:0013000000000013
#01015:00130000
#01012:23000013
#01010:41
#01112:13001313
#0111b:0013001300000000
#01115:00130000
#01118:0000000000130000
#01215:0013000000000013
#01218:00130000
#0121b:23000013
#0131b:13001313
#01312:0013001300000000
#01318:00130000
#01315:0000000000130000
#0151a:1400000000000014
#01514:00140000
#01518:0000001400000000
#01513:0014
#01519:0000000000140000
#01512:00000014
#0171b:00131323
#01712:00131323
#01715:0000001300000000
#01718:0013000000130000
#0181b:13
#01815:13
#01812:0000001300000000
#01818:0000001300001300
#01810:41
#02718:0000000000000013
#02715:00000013
#0271b:0000000000130000
#02812:13
#02818:0000130000000013
#02815:0000001300001300
#0291b:0000000000000013
#03018:00130000
#03012:0000001300000000
#0301b:0000000000000013
#03015:23
#03115:0013000000000000
#0311b:0000000000000013
#02612:13
#0261b:0000001300000000
#02615:0000001300001300
#02610:41
#03215:13
#03212:0000131300000000
#0321b:13
#03218:0000001300000000
#03312:00000013
#03318:00000013
#03310:41
#03718:00130013
#03715:0000001300000013
#03712:0000000000130000
#0371b:0013
#03618:00000013
#05112:0000001300000013
#05118:0023000013001300
#05115:0000000000130000
#05212:0000130000000013
#05218:00130013
#0521b:2313
#05215:0000000000130000
#0541b:13
#05415:0013
#05418:0000001300000013
#05318:0013
#05315:0023001300000013
#05512:13
#0581b:00130000
#05812:00000013
#05818:0000000000000013
#05918:0013000000000000
#06215:0000001616161616
#06216:00000000000000160000001600000016
#06214:00000000000000000016000000160000
#06618:0000130013000013
#0661b:00000013
#06615:0000001300000000
#06612:2400000000130013
#0671b:0013000000001300
#06715:0013000000130000
#06712:0000001300000000
#06718:0013
#07015:13
#07012:0000001300000000
#07018:0000001300000000
#07115:00000016
#07215:0000000000000016
#07218:26
#07618:23130000
#07615:0013001300000013
#07612:0000000000130000
#0761b:0000001300001300
#07712:0013001300000000
#07718:00130000
#0771b:13001313
#07715:0000000000130000
#07815:23130000
#07818:0013001300000000
#0781b:0000000000130013
#07812:0000001300001300
#08215:0013000000000013
#08218:00130000
#0821b:23000013
#08318:13130013
#08312:0013000000000000
#08315:0000001300130000
#0831b:0013
#08418:0013000000000013
#08415:00130000
#08412:23000013
#08515:13130013
#0851b:0013000000000000
#08518:0000001300130000
#08512:0013
#04118:00333333000000000000000000000000
#0611b:00333333
#0611a:33
#06112:00333333
#06113:33
#08919:00330000000000000000000000000000
#0891a:0033000000000000
#02055:0000000000000053
#04655:13
#04658:0053
#04555:0063
#04552:0013000000000000
#04258:0000000000000063
#04855:13
#04852:0000000000000013
#0505b:0000000000000053
#05755:0063000000000000
#05752:00000013
#05758:00000013
#05652:00530000
#0655b:0000005300000000
#06555:0000005300000000
#06552:00000013
#06558:00000013
#0235b:0000001300000000
#02358:0053000000000000
#0225b:0000002300000000
#00958:00000013
#01655:0000005300000000
#01858:00000053
#02858:0000000000000063
#03155:0063000000000000
#03152:0000001300000000
#03052:0000002300000000
#02655:00000063
#0435b:0013000000000000
#04455:0000000000000053
#04758:13
#05158:0013000000000000
#05252:0000000000000063
#05355:0013000000000000
#05358:0053
#0545b:13
#05455:0063
#05552:13
#0585b:00630000
#05958:0053000000000000
#0595b:00000013
#05955:00000013
#06058:0053
#06055:0053
#06255:0000005656565656
#06256:00000000000000260000002600000026
#06254:00000000000000000026000000260000
#06355:5656000000000000
#06354:00260000000000000000000000000000
#06356:00000026000000000000000000000000
#06858:53
#0685b:0013
#06852:53
#06855:0013
#07255:0000000000000026
#07258:56
#08055:63
#08058:0053
#0065b:13
#00752:13
#002350:0000000000000013
#003350:0023000000000000
#004380:0000000000000013
#005380:0023000000000000
#005380:00000000000000001300003300003300
#0063b0:23
#006350:00000000000000001300003300003300
#007320:23
#009380:0000000013332300
#0103b0:0000001300230000
#012320:0000001300230000
#016350:0000001300000000
#016320:0000000000230000
#018380:00000013
#0193b0:0023
#020350:0000000000000013
#021320:0000002300000000
#0223b0:0000001300000000
#022380:00000023
#023380:0013000000000000
#0233b0:0000002300000000
#024320:0000000000130023
#024381:0000000000130023
#026351:00000013
#027321:00230000
#028381:0000000000000013
#0293b1:0000002300000000
#030321:0000001300000000
#030351:00000023
#031351:0013000000000000
#031321:0000002300000000
#0323b1:0000000000130023
#032350:0000000000130023
#034350:13
#034320:00230000
#0343b1:13
#034381:00230000
#034381:0000000000000013
#035381:0023000000000000
#036381:13
#0363b1:00230000
#036320:13
#036350:00230000
#036350:0000000000000013
#037350:0023000000000000
#0383b0:00132300
#039320:00132300
#041380:13333333000000000000000000000000
#0413b0:00230000
#042380:0000000000000013
#0433b0:0023000000000000
#044350:0000000000000013
#045320:0023000000000000
#045350:0013
#045320:00000000000000000000002300000000
#046380:0013
#0463b0:00000000000000000000002300000000
#0503b0:0000000000000013
#051380:0023000000000000
#052320:0000000000000013
#053350:0023000000000000
#053380:0013
#0533b0:00000000000000000000002300000000
#054350:0013
#054320:00000000000000000000002300000000
#056320:00130000
#056350:0023
#057350:0013000000000000
#057320:0000005300332300
#057381:0000001300332300
#0583b1:00130000
#058381:0023
#059381:0013000000000000
#0593b1:0000005300332300
#059350:0000001300332300
#060380:0013
#060390:00000033
#0613a0:33
#0613b0:00333333
#0623b0:23
#060351:0013
#060341:00000033
#061331:33
#061321:00333333
#062321:23
#062351:0000001656565656
#062361:00000000000000560000005600000056
#062341:00000000000000000056000000560000
#063351:5656260000000000
#063341:00560000000000000000000000000000
#063361:00000056000000000000000000000000
#0653b1:0000001300000000
#065381:0000000000332300
#065350:0000001300000000
#065320:0000000000332300
#068380:13
#0683b0:0000003323000000
#068321:13
#068351:0000003323000000
#070321:0013
#071321:0023
#070380:0013
#071380:0023
#072380:16
#072350:0000000000000056
#073380:00000026
#080350:13
#080320:0000002300000000
#080380:0013
#0813b0:00000023
#082320:0000001300230000
#0843b0:0000001300230000
#0863a0:1300332300000000
#086331:1300332300000000
#087381:0000000000000013
#089381:33
#089391:00330000000000000000000000000000
#0893a1:0033000000000000
#0893b1:00000023000000000000000000000000
