This file was generated by Ched 2.6.2.0.
#TITLE ""
#ARTIST ""
#DESIGNER ""
#DIFFICULTY 0
#PLAYLEVEL
#SONGID ""
#WAVE ""
#WAVEOFFSET 0
#JACKET ""
#REQUEST "ticks_per_beat 480"
#00002: 4
#BPM01: 190
#00008: 01
#TIL00: ""
#HISPEED 00
#MEASUREHS 00
#00912:00001200000012001c3c000000000000
#00917:00120000
#00915:00000000000000000000363600000000
#0101b:0013000000130013
#01012:00131300
#01018:1300001300001300
#01015:2300001300001300
#01010:41
#01115:0013000013130000
#0111b:0000001300001300
#01118:00001300000000001300001300000000
#01112:13130013
#01318:1300130000161616
#01312:00001300000000001300001600160000
#0131b:0013000013000000
#01315:0000001300000000
#0141a:1400000013130000
#01412:1400000000001313
#01419:0000131300000000
#01414:0000131300000000
#01413:0000000013130000
#0141b:0000000000001313
#01516:14000012000000000000000000000000
#01518:0012000000000000
#01512:0000001300130013
#01515:00001313
#0151b:0000001300000000
#0151a:00130000
#01513:00130000
#0161b:1300000000130000
#01617:0000001313000013
#01616:0000000000130000
#01612:0000000013000013
#01918:0000000000130013
#01916:00000013000000000000000000000000
#01912:0000001300000000
#01915:00000013
#0191b:00000013
#02012:1300001300000013
#02015:00130000
#02018:0000001300000000
#02016:00000013
#02017:0000000000000013
#0201b:13000013
#02216:1300131300000000
#02212:00130013
#02217:00000000000000000013000000001300
#0221b:1300001300000013
#02112:0000000000000013
#02116:0013000000000013
#0211b:0013000000000000
#02316:0013000000000013
#02317:0000001300000000
#02412:0000001300130000
#02417:0000130000130000
#0241b:13
#02416:13
#02515:0000001300001300
#02518:00000000000000130000130000001300
#02512:0013
#0251b:0013
#03319:0012000000000000
#03315:000000000000000000120000000000000000000000000000000000001300000000000000000000000000000013000000
#03317:00120000
#03313:1300001300000000
#03312:00001316
#03318:000000161313
#0331b:00000013
#0331a:1300001300000000
#03310:41
#0391b:0013001300001300
#03916:0000000000001314
#03912:0013001300000000
#03919:23131300
#03915:23130000
#04117:0012
#04113:00320000000000000000000000000000
#04114:0032000000000000
#04115:00000032000000000000000000000000
#04118:00320000000000000000000000000000
#04119:0032000000000000
#0411a:00000032000000000000000000000000
#0471b:1300001300001300
#04717:0000000000000013
#04712:0000000000000013
#07114:00000013
#07119:00000013
#0861c:1200000000120000
#08619:00000012
#08616:0000000000120012
#08614:0000001200000000
#0861a:0000001200000000
#08612:12
#08712:1200000000001313
#08715:0012000000000000
#08718:12120000
#08719:0012
#08716:0000001200120000
#0871c:0000001200000000
#08717:0000000000002323
#0891b:13
#08918:00130000000000000000000000000000
#08915:0013000000000000
#08912:00000013000000000000000000000000
#03412:1300000013000013
#03416:00130013
#03417:0000000000000013
#0341b:00130013
#03418:16
#0341f:11
#0381b:0013001300000013
#03812:0013001300130000
#03814:23131313
#03818:23130000
#03819:00000013
#0371b:0000000000000013
#03712:0013000000000013
#03719:00000000000000000000001300000000
#03715:00130000
#03713:0000001300000000
#03716:00001313
#03714:0000000000130000
#07017:0000001212000000
#07012:12
#0081c:12120000
#00817:0012000000000000
#00819:0000001200000000
#00815:0000000000000012
#00117:0000001300000000
#00112:0013
#00119:0000000000130000
#00114:00000013
#0011b:0000000000000013
#0051b:1300001300000013
#00515:0000001313000000
#00512:0013000000000000
#00616:13
#0061b:13
#00612:0000001300000013
#00618:0000001300000000
#00617:0013
#0181b:13000013
#01816:1300001300000000
#01812:0000130000130000
#01817:0000130000130000
#01810:41
#06015:0012
#06016:13
#06013:00130000
#0601a:00130000
#06017:0022
#0631b:00000000000000001300000000130000
#06318:000000001400000000000000000000000000130000000000000000130000000000130000000000000000000000130000
#06315:00000000000000130000130000001300
#06312:00001313
#06314:141400000000
#06316:001400140014000000000000000000000000000000000000
#0741b:0000131300000013
#07418:2300000000161300
#07412:1300000000000013
#07416:0000001300000000
#07415:0000000000130000
#07518:13000000000016001300000000000013
#07515:0013001300001300
#07519:00130000
#0751b:00000000000000000000130000130000
#07512:1600130000130013
#04815:1600000000000016
#0481b:00130000
#04816:0000001300001300
#04817:0000000000130000
#07318:0016000000000000
#08019:0000001300000000
#08014:0000001300000000
#0801b:13
#08012:00130000
#08018:0026
#0781b:00131300
#07812:1300001300000012
#07817:0000001300001300
#07814:0000000000130000
#07816:0013000000000000
#07818:23
#08212:2300000000161300
#08218:0000000000161300
#08215:0000000000000013
#08216:0000131300000000
#0821b:0000001300000000
#08217:13
#08312:1600001613000000
#0831b:0013000000000000
#08318:16000000130016001300000000000013
#08314:00000013
#08319:00000000000000000000000000130000
#08313:0000000000000013
#08315:0013000000130000
#0831a:00000000000000000000001300000000
#08818:00000000000000000013000000000000
#08514:0000000013131313
#08519:0000000013131313
#08518:1613001600000000
#08512:1613001600000000
#08515:00130000
#0071b:13
#00716:13
#01716:00000000000013001400001400000000
#0171b:0013000000000000
#01712:0000000000000000001400002c000000
#0171a:0000000000140000
#0681c:0000000000000012
#06816:1400001400000000
#0681a:0014
#06812:0014
#06912:0000001200000000
#0691c:0012
#06910:41
#0791c:0000001200000000
#07912:0012
#04212:0000000013130014
#04217:00000000000013000000130000000014
#04216:0013000000000000
#0421b:23
#0421f:21
#04316:0000001300130000
#04312:0028000013001300
#04315:14
#0431a:00140000000000000000000000000000
#0361b:1300000013000013
#03616:1300000000000013
#03617:00130013
#03612:00130013
#03516:00000013
#0351b:0013000000000000
#03518:00130000
#0351a:0000001300000000
#03517:0013
#03519:0000000000130000
#00316:0000001300000000
#0031b:0013000013000000
#00314:0000000000130000
#00319:00000013
#00312:1300000000000013
#04612:13000000000013000000001300000000
#04617:00000000000013000000000013000013
#04615:00000000000000000000000000130000
#0461b:0013
#04619:0000000000000013
#04616:0013
#05117:0000001300130013
#0511b:00001313
#05112:00140000000000000000000000001300
#05116:1428000000000000
#0491b:0000000013130000
#04918:0000000000001313
#04915:00000000000000000013001300000000
#04912:00000000000013000000000000130013
#04919:00140000
#04913:0014000000000000
#05312:0000000028000000000000001300000000000000000000000000001300000000
#05317:0000000000000000000000001300000000000000000000000000001300000000
#05316:14000000000000000000001300000000
#0531a:00140000000000000000000000000000
#05314:0013
#05319:0013
#0531b:00000000000000000000001300000000
#0451b:00000000000013000000001300000000
#04516:00002800000013000000000013000013
#04517:1413
#04512:00140000000000001300000000000000
#04518:00000000000000000000000000130000
#04514:0000000000000013
#0021b:2300000000000013
#00216:2300000013000013
#00212:00130013
#00217:00130013
#00412:2300000000000013
#00417:2300000013000013
#0041b:0000130000130000
#00416:0000130000130000
#01215:0013000000130013
#01218:00131300
#01212:1300001300001300
#0121b:2300001300001300
#0281b:13130013
#02814:0000000000001313
#02817:0000001300000013
#02812:1313131300000000
#0291b:0013000000000013
#02914:1313000000001400
#02913:0000001400000000
#02918:0000000000140000
#03017:1300001300000000
#03016:00000000000000000013000000001300
#03015:00130000
#0301b:00000013
#03012:2300001300000013
#03019:0013000000000000
#0321b:0000001300130000
#03216:0000131300130000
#03212:13
#03217:13
#04012:1323000000002600
#04017:2313000000000000
#04016:0000002414000000
#0401a:0000001424000000
#04018:00000016
#0441b:0000000013130000
#0441a:0000000000000014
#04415:00000000000000000000000000000014
#04416:0000001300130000
#04417:0013000000000000
#04412:23
#04410:41
#05012:0013
#05016:00001300000000000000000000000014
#05017:0000001300000000
#0501b:23000013
#0501a:0000000000000014
#0521b:0000000013130000
#05217:0013000000000000
#05216:00000000000013000000000000000014
#05212:2300000000000014
#05215:0000000000130000
#0541b:0000000000000000000000001300000000000000000000000000001300000000
#05416:0000000000000000000000001300000000000000000000000000001300000000
#05419:0013
#05414:0013
#05417:00000000000000000000001300000000
#05412:00000000000000000000001300000000
#05515:0012
#05519:0012
#05514:00000012
#0551a:00000012
#0571b:00130013
#05717:0000000000130000
#05712:13000000000000000013000000000000
#05718:0013000000000000
#05715:0000001300000000
#0561b:0000000013000013
#05612:25130013
#05617:00130013
#05619:2500000000130000
#05616:0013
#05614:0000001300000000
#05615:0000000000000013
#05916:0000000000130000
#0591b:13000000000000000013000000000000
#05915:0013000000000000
#05912:00130013
#05918:0000001300000000
#05917:00000000000000000000000000130000
#05914:0000000000000013
#05919:00000000000000000000000000000013
#05812:2500000013000013
#0581b:00130013
#05816:00130013
#05814:0000000000130000
#05817:0013
#05819:2500001300000000
#05818:0000000000000013
#06216:000000000000000000140014001400140014001400140014
#06218:000000000014001400140014
#06214:000000141414
#06516:13001313
#0651b:0013000000131300
#06517:00130000
#06512:0000001300000000
#06418:0016000013160013
#0641b:23130013
#06415:00130013
#06412:2300001613000013
#06712:0013000000161616
#06717:13
#06718:00000000000000001300001600160016
#06715:0000001300000000
#06615:0000000013000013
#06612:2300130000161300
#06618:0000131600001300
#0661b:2300000013000013
#07612:0000131300160013
#0761b:1300000000000013
#07617:0000001300000000
#07618:0000000000130000
#07615:23000013
#07715:13000000000000001300000000000013
#07718:1613001300001300
#07714:00130000
#07712:00000000000016000000130000130000
#0771b:0000130000130013
#08112:00000000001600000000000000000000
#08417:0000131300000000
#08412:0000001300160000
#08416:13
#0841b:23000013
#08415:00000013
#08418:0000000000160013
#03117:0013000000000013
#03116:0000001300000000
#03114:0000000000140000
#03118:00000014
#03112:0000000000000013
#02612:0013001300000000
#02616:13001313
#0261b:1313131300001313
#02610:41
#02712:00000013000000000000130000000000
#0271b:1313000000130000
#02719:0000001400000000
#02718:0000000000000013
#02715:00000013
#0611c:0022
#06117:22
#07212:26
#00957:00000012
#00952:006c
#04157:0012
#01956:00000023000000000000000000000000
#0185b:53000053
#01856:0000005300000000
#01857:00230000
#01852:0000000000230000
#02057:0000000000000053
#02052:0000000000000053
#06252:12
#0625c:12
#06258:000000000024002400240024
#06254:000000242424
#06256:000000000000000000540054005400540054005400540054
#04855:1600000000000016
#07358:0026000000000000
#07452:63
#07458:0000000000460000
#0805b:63
#08058:0056
#07852:63
#07857:0000005300000000
#07856:0023000000000000
#0785b:0023
#08752:0000000000000063
#08858:00000000000000000023000000000000
#02452:0000000000630000
#02457:0000000000630000
#02456:53
#02257:00000000000000000023000000005300
#0225b:0000006300000013
#02356:0053000000000000
#02352:0013000000000000
#0235b:0000001300000000
#00656:33
#0075b:43
#08258:0000000000460000
#08257:63
#08352:36
#08358:0000004600000000
#06856:64
#0685a:0044
#06852:0034
#04352:0038000000000000
#05156:0048000000000000
#03452:3300000000000063
#03456:00330000
#0345b:00630000
#03556:00000043
#0365b:4300000000000053
#03657:00430000
#03652:00530000
#03858:00630000
#0385b:0000002300000000
#07558:0000004600000000
#07552:36
#00352:23
#00256:0000000000000063
#00257:00530000
#0055b:23
#00457:0000000000000053
#00456:00630000
#01252:33000033
#0125b:0000004300000000
#0135b:0043000000000000
#01352:0033
#01752:0000001c
#0325b:0000000000530000
#03256:0000000000530000
#03257:63
#03056:00000000000000000023000000006300
#03052:0000005300000013
#03955:00530000
#03952:0000002300000000
#04556:0048000000000000
#04552:0063
#04652:33
#0465b:0053
#0475b:43
#05052:0023
#0525b:0000000000230000
#05352:0000000038000000000000000000000000000000000000000000002300000000
#05356:00000000000000000000006300000000
#05357:0000000000000000000000000000000000000000000000000000002300000000
#0535b:00000000000000000000006300000000
#05456:4300000000000000000000000000000000000000000000000000002300000000
#0545b:4300000000000000000000000000000000000000000000000000002300000000
#05457:00000000000000000000005300000000
#05452:00000000000000000000005300000000
#05557:33
#05552:33
#0575b:00230043
#05752:23000000000000000023000000000000
#05758:0053000000000000
#05755:0000006300000000
#05655:0000000000000063
#06056:33
#0595b:23000000000000000023000000000000
#05955:0063000000000000
#05952:00230000
#05958:0000005300000000
#05858:0000000000000053
#06354:242400000000
#06356:005400640054000000000000000000000000000000000000
#06358:002400000000000000000000
#06556:23002333
#0655b:0063000000000000
#06557:00230000
#06552:0000005300000000
#06452:0000000000000053
#0665b:0000000000000063
#06757:23
#07057:0022
#07252:66
#07652:0000000000360000
#0765b:53
#07758:46
#07752:0000003600000000
#08152:00000000002600000000000000000000
#08456:53
#08452:0000000000360000
#08558:46
#08552:0000003600000000
#01058:13000013
#01055:0000001300000000
#01155:0013000000000000
#01152:00000033
#0115b:00000043
#01158:0013
#01556:14
#03157:0063000000000000
#0315b:0013000000000000
#03152:0000001300000000
#04057:0043000000000000
#04056:0034
#08652:62
#0865c:62
#0215b:0023000000000000
#02156:0023000000000000
#02857:0000002300000063
#0285b:63
#0295b:0023000000000000
#02652:0023006300000000
#02656:63002363
#02752:00000023000000000000000000000000
#002370:00130000
#0023b0:0023
#002360:0000000000000013
#003320:53
#003360:0023000000000000
#004360:00130000
#004320:0023
#004370:0000000000000013
#0053b0:53
#005370:0023000000000000
#0053b0:0013
#005360:00000000000000000000002300000000
#005321:00000000000000000000001300000000
#005371:0000000000000023
#006321:0013
#006371:00000000000000000000002300000000
#0063b0:00000000000000000000001300000000
#006360:0000000000000023
#008340:0000001200220000
#0083a1:0000000000120022
#009321:00000000000000001c3c000000000000
#009351:00000000000000000000363600000000
#009371:00000022
#015381:00001333
#0153b1:0000000000330023
#016361:13
#016321:0023000000000000
#016370:0013000000000000
#0163b0:00230000
#016361:00130000
#016321:0000002300000000
#017361:0013000000000000
#017321:00230000
#017370:00130000
#0173b0:0000002300000000
#0183b0:1300002300000000
#018370:0053530000000000
#018361:0000001300002300
#018321:0000000053530000
#0183b0:00000013
#018360:00000000000000000000000000000053
#019360:00000053000000000000000000000000
#0193b0:0000002300000000
#020320:0000000000000013
#021360:0053000000000000
#021320:0000002300000000
#020371:0000000000000013
#0213b1:0053000000000000
#021371:0000002300000000
#0223b1:0000001300002300
#022371:00000000000000000053000000000000
#022371:0000000000000013
#023321:5323000000000000
#023360:0013000000000000
#0233b0:0000532300000000
#024360:13
#024320:00230000
#024320:0000000000130000
#024360:0000000000000023
#024371:0000000000130000
#0243b1:0000000000000023
#026361:13230000
#026321:0053000000000000
#026321:0000001300230000
#026361:0053
#026361:00000013
#026321:00000000000000000000000000000053
#027321:00000053000000000000000000000000
#027361:0000002300000000
#0283b1:13
#028371:0023000000000000
#028371:0000001300000000
#0283b1:0000000000230000
#028371:0000000000000013
#0293b1:0053000000000000
#029371:0000002300000000
#030321:0000001300002300
#030361:00000000000000000053000000000000
#030361:0000000000000013
#0313b1:5323000000000000
#031370:0013000000000000
#031320:0000532300000000
#032370:13
#0323b0:00230000
#0323b0:0000000000130000
#032370:0000000000000023
#032361:0000000000130000
#032321:0000000000000023
#0343b1:00130000
#034361:0023
#034321:0000000000000013
#035361:0033000000000000
#035331:00330000
#035351:0000003300000000
#035321:00003323
#035341:0000000000330000
#036321:00130000
#036371:0023
#0363b1:0000000000000013
#037371:0033000000000000
#0373a1:00330000
#037381:0000003300000000
#0373b1:0033
#037391:0000000000230000
#038381:00132300
#0383b1:0000005300000000
#039351:00132300
#039321:0000005300000000
#041321:12
#041331:00320000000000000000000000000000
#041341:0032000000000000
#041351:00000032000000000000000000000000
#041371:00220000
#041370:12
#041380:00320000000000000000000000000000
#041390:0032000000000000
#0413a0:00000032000000000000000000000000
#0413c0:00220000
#042330:13230000
#042320:0053000000000000
#0423a1:00132300
#0423b1:0000005300000000
#0433b1:0000001300000000
#043371:0023
#0433b1:0000000000130000
#043371:00000023
#0443a1:13230000
#0443b1:0053000000000000
#044330:00132300
#044320:0000005300000000
#045320:0013
#045360:00000000000000000000002300000000
#0463b0:0013
#046370:00000000000000000000002300000000
#047320:0000001323000000
#047381:0000000013230000
#047350:0000000000132300
#048360:00130000
#048320:0000003323000000
#048371:0013
#0483b1:0000000000332300
#050351:13230000
#050321:0053000000000000
#050380:00132300
#0503b0:0000005300000000
#050321:0013
#050361:00000023
#051321:0000001300000000
#051361:0023
#051321:0000000000130000
#051361:00000023
#052381:13230000
#0523b1:0053000000000000
#052350:00132300
#052320:0000005300000000
#0523b0:0000000000130000
#052370:0000000000000023
#053360:00000000000000000000001300000000
#053320:0000000000000000000000000000000000000000000000000000005300000000
#054360:23
#0533b1:00000000000000000000001300000000
#053371:0000000000000000000000000000000000000000000000000000005300000000
#0543b1:23
#054371:00000000000000000000001300000000
#0543b1:0000000000000000000000000000000000000000000000000000005300000000
#055371:23
#054320:00000000000000000000001300000000
#054360:0000000000000000000000000000000000000000000000000000005300000000
#055320:23
#056350:0000000000000013
#057320:53
#057350:0023000000000000
#057381:0013002300000000
#0573b1:00530000
#057350:0000001300002300
#057320:00000000000000000053000000000000
#058380:0000000000000013
#0593b0:53
#059380:0023000000000000
#059351:0013002300000000
#059321:00530000
#059380:0000001300002300
#0593b0:00000000000000000053000000000000
#060370:0012
#0603a0:0000000000522200
#060371:00000012
#060341:0000000000000052
#061341:22
#061370:12
#0613c0:0052220000000000
#061371:00120000
#061321:0000005222000000
#0613c0:0012
#0623c0:22
#061321:00000012
#062321:22
#062361:000000000000000000140054005400540054005400540054
#062381:000000000054005400540054
#062341:000000545454
#063341:545400000000
#063361:005400540054000000000000000000000000000000000000
#063381:005400240000000000000000
#064321:0000000000000013
#065361:53
#065321:0023000000000000
#0653b0:0013002300000000
#065370:00530000
#065321:0000001300230000
#065361:0053
#0663b1:0000000000000013
#067371:53
#0673b1:0023000000000000
#068361:14
#068321:0054002400000000
#068361:0000000000000012
#069361:22
#069390:1222000000000000
#069351:0012220000000000
#069380:0000122200000000
#069360:0000000012220000
#069391:0000000000122200
#069350:0000000000001222
#069381:0000000000000012
#070381:22
#070371:0012
#071321:002c
#072321:16
#073381:0056000000000000
#073321:00000026
#074321:13
#074361:00230000
#0763b1:13
#076371:00230000
#078321:13230000
#078361:0053000000000000
#078371:0000001300230000
#0783b1:0053
#078381:0000000000000012
#079381:22
#079340:1222000000000000
#0793a1:0012220000000000
#079360:0000122200000000
#079380:0000000012220000
#079341:0000000000122200
#0793a0:0000000000001222
#079361:0000000000000012
#080361:22
#0803b0:13
#080370:00230000
#080380:0016
#081320:00000000005600000000000000000000
#081380:00000026
#082370:13
#0823b0:00230000
#084360:13
#084320:00230000
#086320:12
#086360:00220000
#0863c1:12
#086381:00220000
#087321:0000000000000013
#088381:00000000000000000053000000000000
#089321:23
