This file was generated by Ched 2.6.2.0.
#TITLE ""
#ARTIST ""
#DESIGNER ""
#DIFFICULTY 0
#PLAYLEVEL
#SONGID ""
#WAVE ""
#WAVEOFFSET 0
#JACKET ""
#REQUEST "ticks_per_beat 480"
#00002: 4
#BPM01: 190
#00008: 01
#TIL00: ""
#HISPEED 00
#MEASUREHS 00
#0021a:1414
#00214:00140014
#0061a:14
#00614:14
#00612:0014
#00618:0014
#00719:1414
#00713:1414
#0101a:1414
#01014:00140014
#01010:41
#01114:00140000
#0111a:14
#0141a:1414
#01414:00140000
#01512:1414
#01518:00140000
#0161a:14
#01612:00140000
#01614:00000014
#01618:0014
#0171a:1414
#01712:00140000
#0221a:14
#02214:0014
#02318:1414
#02314:00140000
#02412:1414
#02418:00140014
#02512:14
#03012:14
#03018:0014
#03114:1414
#03118:00140000
#0321a:1414
#03214:00140014
#0331a:14
#03310:41
#02612:14
#02610:41
#0271a:14
#02814:14
#02918:14
#03612:14
#03618:14
#0371a:14
#03714:14
#03819:14141414
#03913:14141414
#04018:14141414
#04014:0014001400140000
#04212:00140000
#04218:0014
#04214:00000014
#0421a:24
#0421f:21
#04319:00001414
#04313:00001414
#0441a:00140000
#04414:0014
#04418:00000014
#04412:14
#04410:41
#04513:00001414
#04519:00001414
#0461a:14
#04618:0014
#04614:00140000
#04712:14
#04718:00140000
#04714:0014
#0501a:00140000
#05012:2414
#05018:00000014
#05112:0014
#05118:0014
#0511a:00000014
#05114:00000014
#05212:00140000
#0521a:1414
#05214:00000014
#05314:0014
#05318:00000014
#0541a:1414
#05414:1414
#05412:00140014
#05418:00140014
#0551a:14
#05514:14
#05616:0014
#05612:00000014
#0561a:00240000
#05716:14
#0571a:00140014
#05714:0014
#05812:00140000
#05816:0014
#0581a:00000014
#05916:14
#05912:00140014
#05918:0014
#06018:14
#0641a:00140000
#06416:0014
#06412:00000014
#06516:14
#0651a:00140014
#06514:0014
#06612:00140000
#06616:0014
#0661a:00000014
#06716:14
#06712:00140014
#06718:0014
#06912:14
#06918:00140000
#06914:0014
#0691a:00000014
#06910:41
#0711a:00000014
#07412:1414
#07418:00140014
#07514:1414
#0751a:00140014
#0721a:14
#07612:14
#07618:00140000
#07614:0014
#0761a:00000014
#07712:14
#07718:00140000
#07714:0014
#0771a:00000014
#07812:1414
#07818:1414
#0781a:00140014
#07814:00140014
#0791a:0014
#07914:00000014
#07912:14
#07918:14
#08018:0014
#08614:1414
#08618:00140014
#08714:14141414
#08718:0014001400140000
#08918:14
#00418:00140014
#00412:1414
#0031a:14
#00312:0014
#00318:00000014
#04819:0000153535353500
#04816:00000000000000000015000000000000
#01212:1414
#01218:00140014
#01318:00140000
#01312:14
#0341f:11
#01810:41
#02652:54
#0275a:54
#02854:54
#02958:54
#03652:54
#03658:54
#0375a:54
#03754:54
#0725a:54
#08058:0054
#08958:24
#04859:00550000
#04856:00000000000000000025000000000000
#04058:00000014
#005320:1424
#011380:00001424
#013340:00001424
#0183a0:14
#018380:00000024
#019320:14
#019340:00000024
#020380:14
#0203a0:00000024
#021340:14
#021320:00000024
#026320:14
#026340:00000024
#0273a0:14
#027380:00000024
#028340:14
#028320:00000024
#029380:14
#0293a0:00000024
#034320:14
#034340:0024
#034381:14
#0343a1:0024
#0353a1:14
#035381:0024
#035340:14
#035320:0024
#036320:14
#036340:0024
#036381:14
#0363a1:0024
#0373a1:14
#037381:0024
#037340:14
#037320:0024
#0433a0:14240000
#045320:14240000
#048390:1500353535353525
#048360:00000000000000000055000000000000
#051320:14240000
#0533a0:14240000
#060320:0014
#061340:24
#0613a0:0014
#062380:24
#062380:0014
#0633a0:24
#062321:0014
#063341:24
#068381:14
#0683a1:0024
#070321:14
#071321:0024
#0723a1:14
#073371:00000024
#080381:1454
#0813a1:00000024
#082321:14
#082341:0024
#0833a1:14
#083381:0024
#084341:14
#084321:0024
#085381:14
#0853a1:0024
#087381:0000000000000014
#089381:54
#0893a1:00240000
