This file was generated by Ched 2.6.2.0.
#TITLE ""
#ARTIST ""
#DESIGNER ""
#DIFFICULTY 0
#PLAYLEVEL
#SONGID ""
#WAVE ""
#WAVEOFFSET 0
#JACKET ""
#REQUEST "ticks_per_beat 480"
#00002: 4
#BPM01: 197
#00008: 01
#TIL00: ""
#HISPEED 00
#MEASUREHS 00
#00218:14
#00614:14
#00118:14
#00514:14
#01318:14
#01414:14
#02012:16
#02112:16
#02212:16
#02318:16
#02418:16
#02518:16
#02618:16
#00918:14
#01018:14
#02712:16
#02812:16
#02918:16
#03018:16
#03112:16
#03218:16
#03312:16
#03418:16
#03514:14
#03510:41
#03618:14
#03918:14
#04014:14
#04312:14
#00318:14
#00418:14
#00714:14
#00814:14
#01114:14
#01214:14
#01518:14
#04412:14
#0451a:14
#0461a:14
#04712:14
#04710:41
#04814:14
#04918:14
#0501a:14
#0511a:14
#0511f:11
#05214:14
#0531a:14
#05414:14
#05518:14
#05612:14
#05718:14
#06118:2616
#0611f:21
#06212:1616
#06210:41
#06318:16
#06312:0016
#06418:16
#06512:1616
#06618:1616
#06712:16
#06718:0016
#06812:16
#06918:14
#07014:14
#0711a:1414
#0721a:14
#07314:14
#07418:14
#07512:1414
#07612:14
#07718:0016
#07712:26
#07710:41
#07812:16
#07818:0016
#07918:16
#07912:0016
#08012:16
#08112:0016
#08118:16
#08218:16
#08212:0016
#08312:16
#08318:0016
#08418:16
#08514:14
#08618:14
#08714:1414
#08818:1414
#09318:1414
#09414:1414
#09518:1414
#09614:1414
#09818:0014
#10014:0018
#01912:26
#01910:41
#08910:41
#016340:14
#018340:24
#037340:14
#038340:24
#041380:14
#042380:24
#058320:14
#059320:24
#089340:14000034
#090340:0034
#092340:24
#096340:00000014
#098340:24
#098380:00000014
#100380:24
#100340:00000018
#103340:38
#104340:58
#107360:00240000
