This file was generated by Ched 2.6.2.0.
#TITLE ""
#ARTIST ""
#DESIGNER ""
#DIFFICULTY 0
#PLAYLEVEL
#SONGID ""
#WAVE ""
#WAVEOFFSET 0
#JACKET ""
#REQUEST "ticks_per_beat 480"
#00002: 4
#BPM01: 197
#00008: 01
#TIL00: ""
#HISPEED 00
#MEASUREHS 00
#00918:00001313
#0091b:13130000
#00915:0000001300130000
#00912:0000000000000013
#01815:0000000000130000
#01812:00000013
#01818:00000000000000000000001300000000
#0181b:00000013
#01912:1300000000000013
#01916:0000001300000000
#01917:2300000000000023
#0191b:0000002300000000
#01910:41
#02718:00130013
#02712:0000001300000013
#0271b:2313
#02715:2300000000130000
#0281b:1300001300000000
#02818:0013
#02815:0000000000130000
#02812:00000013
#02816:13
#02916:13
#02915:00131313
#02918:0000001300000013
#02912:0000000000130000
#0291b:13
#03015:0000130000160000
#03018:0013001300000000
#03012:0013
#0301b:13000013
#0311b:00130000
#03115:0000001300001300
#03112:2313
#03118:2313
#03216:1313
#03212:00130013
#0321b:1313
#03217:00130013
#03315:0000000000130013
#03318:00000013
#03313:1400001400000000
#03319:1400001400000000
#03412:13
#0341b:13
#03418:00001300000000330000000000000000
#03415:00000013000000000000003300000000
#03419:00000000000033000000000000330000
#0341a:00000000003300000000000000003333
#03413:00000000000000000033000000000000
#03414:0000000000330000
#04312:0000001300000013
#0431b:13001313
#04316:2300000000130000
#04418:1300000000130013
#04416:00130000
#04415:00000013
#04412:13
#0441b:0013000000000000
#04515:13130000
#0451b:0000130000000013
#04512:0000001300130000
#04514:00000013
#04516:0000000000000013
#04517:0000000000130000
#04518:0013001300000000
#04812:0000130000130000
#04815:00000013
#04818:0000000000000013
#04816:13
#04819:0013000000000000
#0481b:13
#04817:00130000
#04912:1313
#04915:0000001300000000
#0491b:13
#04918:0000000000000013
#05012:0013
#0501b:13
#05015:0000001300000000
#0511b:0000001300000013
#05118:0000000000130000
#05115:00001313
#05112:1300000000000013
#0511f:11
#05117:23
#0521b:0013001300000000
#05212:0000001300000013
#05218:13130000
#05215:0013000000000000
#05415:1300130000000013
#05412:0013001300000000
#0541b:0000001300000000
#05418:0013000000000000
#05518:2300130000000013
#05515:0000001300160000
#05512:1300000000000013
#0551b:0000001300000000
#05615:0016001300000000
#05618:0000000000130000
#05612:00000013
#0561b:0000001300000013
#05715:13
#0571b:00130000
#05718:0000001300000013
#05716:00000013
#05712:0000000000000013
#0591b:13000013
#05918:0013000000130000
#05915:00131300
#05912:0000001300000000
#05913:13000013
#0591a:0000001300000000
#0601b:0013
#06019:00003333000000000000150000000000
#06012:13000000000000330000150000000000
#0601a:00330000000000000000000000000000
#06014:00000000003300000000000000000000
#06013:0000003300000000
#06418:0000001300000013
#06412:1313
#0641b:0000000000130000
#06415:00000013
#06812:0000001300000013
#0681b:1300000000130000
#06818:00000013
#06817:0000001300000000
#06915:1300001300000000
#06918:00131300
#06916:0000000000001313
#06912:0013
#0691b:23
#07012:0000001300000000
#0701b:0013000013000000
#07018:0000000000130013
#07015:00000013
#07016:0014001400000000
#0711b:1313
#07112:00130013
#07116:1313
#07117:00130013
#07217:00130000
#07212:00000013
#07512:0000001300000016
#0751b:13000013
#07515:1300000000130000
#07518:0013
#0761b:0000001300000000
#07618:0000000000130013
#07615:00000013
#07612:0000001300000000
#09216:00130000
#09212:1300000000130000
#0921b:00131300
#09218:00000013
#09215:0000000000000013
#0931b:13130000
#09315:00130000
#09312:2300001300000013
#09319:0000000000130000
#09316:00000013
#09318:0000001300000000
#09418:00000013
#09415:0000000000000013
#09414:0013
#09619:0013
#09616:00000013
#0961b:00000013
#09614:0013
#09718:0000000000130000
#09712:23
#09713:0000002300000000
#09714:0000000000000023
#09816:00130000
#09817:00000013
#09812:00000013
#09814:0013
#09819:0013
#09915:0000000000130000
#0991b:23
#0991a:0000002300000000
#09919:0000000000000023
#10017:00130000
#10013:0013
#10018:0013
#10014:00000022
#1001a:00000022
#10312:1300001300000013
#10318:0013130000001300
#10315:00000013001300000000130000000000
#1031b:1300001300000000
#0011b:1300000000130000
#00115:0013000000001300
#00118:0000130000000013
#00112:0000001300000000
#00212:13
#00218:0013000000000013
#00215:00130013
#0021b:0000000000130000
#00312:1300000000130000
#00315:00130000
#0031b:0000001300000000
#00318:00000013
#0051b:1300000000130000
#00512:0013000000001300
#00518:0000130000000013
#00515:0000001300000000
#00615:13000013
#0061b:0013000000130000
#00612:00130000
#00618:0000000000000013
#00712:1300001300000000
#00718:00130000
#00715:0000000000130000
#0071b:00000013
#0081b:0000001300000000
#0041b:0000001300000000
#01015:13000013
#01018:0013000000130000
#0101b:0000130000000013
#01118:1300130000130013
#01115:0000001300001300
#01112:0000000000000013
#0111b:0000001300000000
#01215:0000001300000000
#0121b:0013000000000000
#02012:0013
#0201b:0000000000130000
#02015:00000013
#02018:0000000000000013
#02017:0000001300000000
#02218:00001313
#0221b:0000000000130000
#02215:0000001300000013
#02312:13
#02317:1300000000000013
#02316:0000001300000000
#02612:0013
#02616:0000000000130000
#0261b:00000013
#02617:0000000000000013
#0131b:13
#01318:0013000013000013
#01315:00130013
#01312:1300001300130000
#0141b:13000013
#01418:0013000000000000
#01415:0000130000000013
#01412:1300000000130000
#01518:1313000000001300
#01512:0000130000130000
#0151b:0000001300000000
#01515:0000000000000013
#01618:0000000000130000
#01612:00000013
#01619:0033000000000000
#0161a:00330000
#01613:0033000000000000
#01614:00330000
#01718:0013000000000000
#0171b:00130000
#01712:0000001300000000
#01715:00130000
#0241b:0013
#02412:0000000000130000
#02418:00000013
#02415:0000000000000013
#02416:0000001300000000
#04617:00130000
#04616:0013
#05816:0000001300000000
#05818:00000013
#06117:1313
#06116:00130013
#06112:2313
#0611f:21
#06212:0000000000000013
#06216:1313
#0621b:1313
#06217:00130013
#06210:41
#0631b:13001313
#06315:13130013
#06312:0013
#06318:0000001300000013
#06518:0013000013000000
#0651b:1300000000130000
#06515:00130013
#06512:2313
#06612:1300000000130000
#06615:0013000013000000
#0661b:1313
#06618:00130013
#06714:00130000
#0671b:1313
#06719:00130000
#06712:00001313
#06718:0000000000131300
#06715:0000000000000013
#07316:00130000
#0731b:23000013
#07315:23
#07418:13
#07412:13000013
#07417:00130000
#08018:0000001300130013
#08015:00001313
#08012:13
#07818:0000130013000013
#07815:1300001300001300
#0781b:1300000000130000
#07812:0013000013000000
#07912:1313
#07918:00130013
#0791b:1313
#07915:0013001300001300
#0831a:14
#0831b:0012000000000000
#08314:00140000
#08315:0000001200000000
#08318:0014
#08319:0000000000120000
#08316:14
#08312:00000014
#0841b:0000001300000013
#08412:0000000000130000
#08415:00000013
#08416:0000001300000000
#08515:00130000
#0851b:00130000
#08514:0013
#08517:0000000000001313
#0851a:0013
#08512:23
#08518:23
#0861b:0000001300000000
#08612:0013000013000000
#08615:0000000000130013
#08618:00000013
#08616:0014001400000000
#08712:1313
#0871b:00130013
#08717:1313
#08716:00130013
#08816:00130000
#0881b:00000023
#08917:1313
#08919:0013001300130013
#0891b:00130013
#08915:00140014
#08912:2313
#08910:41
#09017:1313
#09019:0013001300130013
#0901b:00130013
#09012:13140000
#09014:00001314
#09117:1313
#09119:0013001300130000
#0911b:00130013
#09112:1313
#09114:00140014
#03512:23131313
#03517:0000000000130000
#0351b:0000001300000000
#03518:00130000
#03515:0013000000000000
#03510:41
#03612:13131313
#03615:0000000000000013
#03618:00000013
#0361b:0000130000130000
#03712:13131313
#0371b:0013000000130000
#03715:0000001300000000
#03718:13130000
#03812:13
#03815:00130000
#03818:0013
#0381b:00000013
#0391b:13131313
#03916:0000000000130000
#03912:0000001300000000
#03915:00130000
#03918:0013000000000000
#0401b:13131313
#04018:0000000000000013
#04015:00000013
#04012:0000130000130000
#0411b:13131313
#04112:0013000000130000
#04118:0000001300000000
#04115:13130000
#0421b:13131313
#04718:0013000000000000
#04715:23130000
#04712:0000001300000013
#0471b:2300000000130000
#04719:00000013
#04714:00000013
#04710:41
#07715:0013001300001300
#07718:0000130013000013
#0771b:2300000000130000
#07712:2313
#07710:41
#08215:0000130013000013
#08218:1300001300001300
#08212:1300000000130000
#0821b:0013000013000000
#08118:0013001300001300
#08115:0000130013000013
#08112:2300000000130000
#0811b:2313
#0211b:1300000000000013
#02117:0000001300000000
#02116:2300000000000023
#02112:0000002300000000
#0251b:13
#02516:1300000000000013
#02517:0000001300000000
#05315:0000001300130000
#05318:00001313
#05312:0000130000000013
#0531b:1300000000000013
#05316:23
#09512:1300130000000024
#09518:0013000000000000
#0951b:2300001300000000
#09514:0000000000130000
#09517:00000013
#09515:0000001300000000
#0951a:0000000000000024
#10214:0032003232320000
#1021a:0032003232320000
#10114:3200003200320032
#1011a:3200003200320032
#0495b:63
#04952:1353
#04958:0013
#0505b:63
#05058:0013
#05055:13
#0965b:00000053
#09758:0000000000230000
#09955:0000000000230000
#09852:00000063
#01158:0000000000000063
#0125b:0023000000000000
#01952:1300000000000013
#01956:0000001300000000
#03256:1313
#03257:00130013
#0435b:53
#04456:00530000
#0455b:0000000000000053
#04657:00230000
#05152:5300000000000013
#05252:0000001300000000
#05255:0013000000000000
#05552:1300000000000013
#0555b:0000001300000000
#0565b:0000001300000000
#05755:63
#05758:0000006300000000
#05752:0000000000000063
#05856:0000002300000000
#05953:13000013
#0595a:0000001300000000
#06157:6363
#0655b:5300000000230000
#06558:0023000063000000
#06652:6300000000230000
#06655:0023000053000000
#07252:00000013
#0735b:00000013
#07452:00000013
#06955:13
#06958:0013
#06956:0000000000000013
#07052:0000003300000000
#0705b:0043000000000000
#06256:5353
#0835b:0022000000000000
#0835a:54
#08354:00540000
#08355:0000002200000000
#08358:0054
#08359:0000000000220000
#08554:0013
#08557:0000000000000013
#08558:13
#0865b:0000004300000000
#08652:0033000000000000
#10352:0000000000000013
#08959:0063006300630063
#08957:2323
#0895b:00230023
#09057:2323
#09059:0063006300630063
#0905b:00230023
#09157:2323
#09159:0063006300630000
#0915b:00230023
#0885b:00000063
#0935b:13
#09352:0000001300000013
#09359:0000000000130000
#0155b:0000006300000000
#10054:00000022
#1005a:00000022
#0775b:13
#0785b:13
#0795b:13
#07958:00000023
#08252:13
#08152:13
#0355b:13
#0215b:1300000000000013
#02157:0000001300000000
#02352:1300000000000013
#0235b:0000001300000000
#02357:53
#02356:0000005300000000
#0255b:1300000000000013
#02557:0000006300000000
#02556:63
#02552:0000001300000000
#0535b:6300000000000013
#0545b:0000001300000000
#05458:0013000000000000
#06358:0000000000000023
#0635b:00001353
#06355:00000013
#07555:53
#0755b:53
#07552:0000000000000036
#0805b:43
#08052:33
#06752:00001363
#06758:00000013
#06755:0000000000000023
#09552:1300000000000034
#0955b:0000001300000000
#09554:0000000000130000
#0955a:0000000000000044
#003350:0000000000000013
#004350:0000002300000000
#007320:0000000000000013
#008320:0000002300000000
#009350:13230000
#011320:13230000
#011380:0000000000000013
#0123b0:0053000000000000
#012380:0000002300000000
#0153b0:0000001300000000
#015380:0000000000230000
#016380:13
#016390:0033000000000000
#0163a0:00330000
#0163b0:0000002300000000
#016321:13
#016331:0033000000000000
#016341:00330000
#016351:0000002300000000
#023371:13
#0233b1:0000002300000000
#023360:0000001300000000
#023320:0000000000000023
#025360:13
#025320:0000002300000000
#025371:0000001300000000
#0253b1:0000000000000023
#0343b1:00130000
#0343a1:00000000003300000000000000000000
#034391:0000003300000000
#034381:00000000000000332300000000000000
#034320:0013
#034330:00000000000000000033000000000000
#034340:0000000000330000
#034350:00000000000000000000003323000000
#034381:00000013
#034391:00000000000000000000000000330000
#0343a1:00000000000000000000000000003333
#0353b1:23
#0353b1:0000000000001323
#036371:1323000000000000
#037371:0000000000001323
#039321:0000000000001323
#040361:1323000000000000
#041361:0000000000001323
#042351:0013003300230000
#042321:00333300
#0433b1:13
#043371:0000002300000000
#044361:00130000
#044321:0000000000230000
#0453b1:0000000000000013
#046371:00530000
#0463b1:0023
#0493b1:13
#049381:0023
#049320:0013
#050350:23
#0503b1:13
#050381:0023
#051321:13
#051361:0000002300000000
#0533b1:13
#053371:00230000
#057351:13
#057321:0000002300000000
#057380:0000001300000000
#0573b0:00000023
#057320:0000000000000013
#058360:0000005300000000
#058320:00000023
#0603b0:13
#0603a0:00330000000000000000000000000000
#060390:00003333000000000000000000000000
#060380:00230000
#060351:00130000
#060341:00000000003300000000000000000000
#060331:0000003300000000
#060321:00000000000000332300000000000000
#061371:13
#0613b1:00230000
#061371:0013
#0613b1:00000023
#062361:13
#062321:00230000
#062361:0013
#062321:00000023
#0633b1:00000013
#063381:0000000000000053
#0643b1:23
#0653b1:13230000
#065381:0053000000000000
#065381:00001323
#0653b1:0000000000530000
#066321:13230000
#066351:0053000000000000
#066351:00001323
#066321:0000000000530000
#067321:00000013
#067351:0000000000000053
#068321:23
#0693b1:0000000000001323
#072321:00130000
#072361:0023
#0723b0:0013
#072370:00000023
#0733b0:00130000
#073370:0023
#073321:0013
#073361:00000023
#074321:00130000
#074361:0023
#0743b0:0013
#074370:00000023
#075350:13
#075320:00230000
#0753b1:13
#075381:00230000
#079381:00000013
#0803b1:23
#0833a1:14240000
#0833b1:0052000000000000
#083340:00142400
#083350:0000005200000000
#083381:00001424
#083391:0000000000520000
#085321:0000000000001323
#0883b1:00130000
#088371:0023
#088320:0013
#088360:00000023
#0883b1:00000013
#089371:5353
#089391:0053005300530053
#0893b1:00530053
#090371:5353
#090391:0053005300530053
#0903b1:00530053
#091371:5353
#091391:0053005300530000
#0913b1:00530053
#092371:23
#0933b1:0000000000000013
#094371:0023
#0963b1:00000013
#097381:0000000000530000
#0983b1:00230000
#098321:00000013
#099351:0000000000530000
#100321:00230000
#100341:00000012
#101341:3200003200320032
#102341:0032003232320000
#102321:00000026
#1003a0:00000012
#1013a0:3200003200320032
#1023a0:0032003232320000
#102380:00000026
#1033b0:0000000000000013
#107370:00230000
