This file was generated by Ched 2.6.2.0.
#TITLE ""
#ARTIST ""
#DESIGNER ""
#DIFFICULTY 0
#PLAYLEVEL
#SONGID ""
#WAVE ""
#WAVEOFFSET 0
#JACKET ""
#REQUEST "ticks_per_beat 480"
#00002: 4
#BPM01: 197
#00008: 01
#TIL00: ""
#HISPEED 00
#MEASUREHS 00
#00915:00001313
#00918:1300000000000013
#0091b:0000001300130000
#00912:13
#01818:0000000000130000
#01815:00000013
#02718:00131300
#02712:2300001300130000
#0271b:00000013
#02715:0000000000000013
#0281b:13
#02818:00001313
#02812:0000000000130000
#02815:0000001300000000
#02918:00130000
#02915:00001313
#0291b:0000000000130000
#02912:13
#03018:00131300
#03012:0000001300000000
#03015:0013000000130000
#0301b:13000013
#04318:0000001300130000
#04312:00001313
#0431b:2300000000000013
#04315:23
#04415:13130013
#04418:0000000000000013
#0441b:0013000000130000
#04512:1300000000130000
#04515:0000130000000013
#04518:0000001300001300
#0451b:0013000000000000
#04812:0013000000130000
#04818:00130013
#0481b:13
#04815:0000000000000013
#05118:2300000000000013
#05115:0000001300001300
#0511b:0000000000130000
#0511f:11
#05112:23
#05212:0013000000000013
#05218:0000001300000000
#05315:0000130000000013
#05312:0000000000130000
#05318:23000013
#0531b:0000001300000000
#05612:0000000000130000
#05618:0013000000001300
#05615:0000000000000013
#0561b:0000001300000000
#05912:0000001300000000
#0591b:13000013
#05918:0000001300000000
#05915:13000013
#0601b:0000000013130000
#06015:0000000013130000
#06415:0013
#0641b:0000001300000013
#06412:00000013
#06418:0000000000130000
#06815:00000013
#06818:0000001300000013
#0681b:0000000000130000
#06812:0000001300000000
#06918:00130013
#06912:2313
#06915:0000000000000013
#07017:0013
#07014:0000000000130000
#07019:00000013
#07016:0000000000000013
#07012:0000001300000000
#0701b:0013000000000000
#0711b:13130013
#07118:0013
#07115:00130013
#07112:0013
#0761b:0000001300000000
#07618:00000013
#07612:0000000000000013
#07615:0000000000130000
#09215:0000130000130000
#0921b:00131300
#09218:00000013
#09212:0000000000000013
#09315:00130000
#09312:0000000000130000
#09318:23000013
#0931b:0000001300000000
#09618:00000013
#09615:0013
#09815:00000013
#09818:0013
#10315:0000001300000000
#1031b:00130000
#10318:13000016
#10312:13
#0011b:1300130000000013
#00115:0013001300000000
#00118:0000000000130000
#00112:00000013
#00215:13000013
#00218:0013000000000013
#00212:00130000
#0021b:0000000000130000
#00315:0000001300001300
#00312:13
#00318:00130000
#0031b:0000000000130013
#01018:0013000000000013
#01012:13130000
#0101b:0000000000130000
#01015:00000013
#01112:13000013
#01115:0000001300000000
#01118:0000000000130013
#0111b:00130000
#01914:0000000000000014
#01912:23
#01918:23
#01915:0000002300000000
#0191b:0000002300000000
#01910:41
#01315:13001313
#01318:0013000000000000
#01312:00130000
#0131b:0000001300130013
#01418:0013000000000013
#01415:00130000
#01412:13000013
#0141b:0000000000130000
#01515:1300000000130013
#0151b:0013000000000000
#01512:00130000
#01518:0000001300001300
#0241b:0013
#02415:0000000000130000
#02418:00000013
#05718:0000001300000013
#0571b:13
#05715:00130013
#0801b:0000001300000013
#08015:0013
#08018:0000000000130000
#08012:00000013
#04715:0013000000000013
#04718:00130013
#04712:0000001300130000
#0471b:23
#04710:41
#02118:0000002300000014
#0211b:23
#02115:23
#02112:0000002300000000
#02215:00001313
#0221b:0000000000130000
#02312:2300000000000014
#02318:23
#02315:0000002300000000
#0231b:0000002300000000
#0251a:0000000000000014
#0251b:23
#02515:23
#02518:0000002300000000
#02512:0000002300000000
#03515:0013000000001300
#03518:00130000
#03512:0000001300000000
#0351b:2300000000130013
#03510:41
#03612:13130013
#03618:0013000000000013
#0361b:0000000000130000
#03715:1300000000130013
#0371b:0013000000001300
#03712:00130000
#03718:0000001300000000
#05418:0000001300000000
#0541b:0013000000000000
#05412:0000000000000013
#05415:00130000
#05515:0000130000000013
#0551b:0000001300000000
#05512:0000000000130000
#05518:23
#06115:00130000
#0611a:2414
#06118:00000013
#06112:2414
#0611f:21
#06215:0000130000000013
#06218:00000013
#06212:1414
#0621a:1414
#06210:41
#07715:0013000000000000
#07718:00130013
#07712:0000001300001300
#0771b:2313
#07710:41
#08812:00130013
#08818:00130013
#0881b:0013
#08815:0013
#09018:00000013
#09012:00000013
#09418:00000013
#09415:0000000000000013
#09512:00130000
#09515:0000000000130023
#0951b:23000013
#09518:0000001300000000
#02018:00001313
#02012:0000000000130000
#00512:1300130000000013
#00518:0013001300000000
#00515:0000000000130000
#0051b:00000013
#00618:13000013
#00615:0013000000000013
#0061b:00130000
#00612:0000000000130000
#00718:0000001300001300
#0071b:13
#00715:00130000
#00712:0000000000130013
#02612:0013
#02618:0000000000130000
#02615:00000013
#0261b:0000000000000013
#03218:13130000
#0321b:0013
#03212:13
#03215:00001313
#0331a:1400001400000000
#03312:1400001400000000
#03318:0000000000130013
#03315:00000013
#03918:0013000000001300
#03915:00130000
#0391b:0000001300000000
#03912:1300000000130013
#0401b:13130013
#04015:0013000000000013
#04012:0000000000130000
#04118:1300001300000013
#04115:00130013
#0411b:0000000000130000
#04112:0013
#07515:1300000000130000
#0751b:00130013
#07512:0000001300000013
#07518:0013
#03415:13
#03413:0033000000000000
#03412:0000333333330000
#04918:0000003300000013
#0491b:13
#05012:13
#05015:0000003300000000
#03115:00130013
#03118:2313
#03112:23
#0631b:13
#06315:00130000
#06318:0014
#06312:00000014
#1011b:0000000000000013
#10115:0000000000000013
#07812:0000130000000013
#07818:00130013
#0781b:1313
#07815:1300000000130000
#07918:1314
#07915:0013000000000000
#0791b:00130000
#07914:00000014
#07912:0000001300000000
#08418:00000013
#08415:0000001300000013
#08412:0000000000130000
#0841b:0000001300000000
#08515:00130000
#08518:0000000013000013
#08512:00000013
#0851b:13
#08616:0013
#08619:0000000000130000
#08614:00000013
#08617:0000000000000013
#0861b:0000001300000000
#08615:0013000000000000
#08712:1313
#0871b:00130013
#08718:0013
#08715:00130013
#10018:00001323
#10012:00001323
#07218:00130000
#0721b:0033
#07315:23130000
#07312:0033
#07418:13130000
#0741b:0033
#06712:13
#06718:00130000
#06714:0014
#0671a:00000014
#08118:0013000000001300
#08112:00130013
#0811b:0000001300000000
#08115:2313
#08212:00130014
#0821b:1313
#08218:00130000
#08215:1313
#08316:1414
#0831a:00140000
#08312:00000014
#0891b:00000013
#08915:00000013
#08910:41
#06515:0013
#06518:0000000000130000
#06512:00000013
#0651a:00140000
#06514:24
#06618:1413
#06615:0000000000130000
#0661b:00000013
#06612:00140000
#01613:33
#01612:0033333300333300
#01712:0033330000000000
#09658:00000063
#09855:00000053
#01954:0000000000000014
#04555:0000000000000063
#05258:0000001300000000
#05252:0013000000000000
#05758:0000000000000063
#02158:0000000000000014
#02352:0000000000000014
#0255a:0000000000000014
#03755:0000000000000063
#05158:0000000000000013
#05458:0000001300000000
#08858:00000053
#08852:00000053
#09058:00000053
#09052:00000053
#01555:0000000000000053
#04158:0000000000000053
#01158:0000000000000063
#03455:63
#0495b:63
#05052:53
#10058:00000053
#10052:00000053
#07552:0000000000000013
#08558:0013
#0855b:13
#1015b:0000000000000023
#10155:0000000000000023
#06358:0014
#06352:00000014
#06754:0014
#0675a:00000014
#07958:0014
#07954:00000014
#07352:00000013
#07355:00630000
#0725b:00000013
#07258:00530000
#0895b:00000063
#08955:00000063
#05355:0000000000000013
#0745b:00000013
#09555:0000000000000013
#011380:0000000000000013
#0123b0:0000002300000000
#015350:0000000000000013
#016330:33
#016320:0033333300333300
#017320:0033332300000000
#034350:13
#034330:0033000000000000
#034320:0000333333332300
#037350:0000000000000013
#038320:0023
#041380:0000000000000013
#0423b0:0023
#045350:0000000000000013
#046320:0023
#0493b0:13
#049380:0000003323000000
#050320:13
#050350:0000003323000000
#057380:0000000000000013
#0583b0:00000023
#060320:13230000
#060381:13230000
#072381:00130000
#0723b1:00003323
#073351:00130000
#073321:00003323
#074381:00130000
#0743b1:00003323
#088381:00000013
#0893b1:00003333
#090381:00003333
#0923b1:23
#088320:00000013
#089350:00003333
#090320:00003333
#092350:23
#093320:0000000000000013
#094350:0023
#096380:00000013
#0983b0:00230000
#098350:00000013
#100320:00230000
#100320:00000013
#101350:0000000000000053
#102320:00000023
#100381:00000013
#1013b1:0000000000000053
#102381:00000023
#103321:0000000000000016
#107321:00230000
