This file was generated by Ched 2.6.2.0.
#TITLE ""
#ARTIST ""
#DESIGNER ""
#DIFFICULTY 0
#PLAYLEVEL
#SONGID ""
#WAVE ""
#WAVEOFFSET 0
#JACKET ""
#REQUEST "ticks_per_beat 480"
#00002: 4
#BPM01: 197
#00008: 01
#TIL00: ""
#HISPEED 00
#MEASUREHS 00
#0011c:12
#0011a:0012000000000000
#00116:00120000
#00114:0000001200000012
#00112:0000000000120000
#00118:00000012
#0021c:0000120000120000
#0021a:0012000000001200
#00218:1200000000000012
#00212:12
#00214:0012000000000000
#00216:00120000
#00317:1200121200120000
#00314:00000012
#0031a:00000012
#00916:1200000000120000
#0091c:12000012
#00918:00120000
#00914:0000001200000012
#0091a:0012
#01118:1200000000120000
#01116:0000121200000000
#0111a:0000001200001200
#01112:0000000012000012
#0111c:0012000000000012
#01114:12000012
#01318:1200000000120012
#01314:0012000000000012
#0131a:00121200
#01316:0000001200001200
#01312:12
#0131c:0000001200000000
#01416:12120000
#01418:0012000000000012
#0141c:00120000
#01412:0000000000120000
#01415:00000012
#01719:0012000000000000
#0171b:00120000
#01718:0000001200000000
#01714:0012000000000000
#01716:00120000
#01713:0000001200000000
#01818:0000000000130000
#01815:00000000000000000000001300000000
#0181b:00000013
#01812:00000013
#01912:1300002300000013
#0191b:2300001300000023
#01915:0013000000130000
#01918:00131313
#01910:41
#0201b:0013
#02017:0000130000130000
#02019:00000013
#02015:0000000000000013
#02012:00130000
#02016:0013
#02014:00000013
#02215:00000000000000001300001300000013
#02218:0000001300130013
#0221b:00000013
#02212:00000000000000000000000000130000
#02812:1300001300000000
#02818:1300001300130000
#02815:00001313
#0281b:00000013
#02912:13000013
#02917:13
#0291b:00130000
#02916:0013
#02919:0000000000130000
#02914:0000000000130000
#03112:1300000000001313
#0311b:0000131313000000
#03117:23
#03212:1313000013130000
#0321b:00130013
#03217:00130013
#03216:0013
#0211b:1300002300000013
#02118:0013130000130000
#02115:00000013001300000000000013000000
#02112:2300001300000023
#0261b:00130000
#02618:0000000013131313
#02615:00000000000000000013001300130013
#02612:00130000
#03312:0000001300000013
#03315:13000016
#03318:13
#0331b:0000001300130000
#03512:2300130000000013
#03514:00000013
#03516:0013001300130000
#0351b:1313
#0351a:00130013
#03510:41
#0491a:14
#04918:00130000
#04912:1314
#04919:0000001300000000
#04916:00001300000000130000000000000000
#04915:00000013
#0491b:0013
#04914:0000000000000013
#04917:00000000000000000000130000000013
#05015:00000016160000000000001616000000
#0501a:14
#05012:1514
#05019:0000001315000000
#05016:00000000000000130000000000000000
#05117:1300000000130000
#05116:0000001300000015
#05114:00000013
#05112:23000000000000000013000000001300
#05119:00001313
#0511f:11
#05212:0000001300000013
#0521b:0013000000131300
#05214:13
#05215:0015000000000000
#05219:00130000
#05216:0000001500001300
#0531b:00001300000000001300000000130000
#05312:0013000013000000
#05315:2300131300000000
#05318:1300001300130000
#05314:00000013
#05316:0000000000000013
#0541b:0013000000000000
#05419:0000130000131300
#05417:00000000000013000000000000000013
#05416:0013000000000000
#05414:0000130000131313
#05412:0000001300000000
#05518:0000131300000000
#05516:0000000000130013
#05512:1300001300000000
#0551a:13
#0551b:0000000000000013
#0561b:0000001300000013
#05617:0000000000130000
#05619:00000013
#05612:0013000000000000
#05616:0000001300000000
#05717:1300000000001313
#05716:0000131300000000
#0571b:0000001300000000
#05712:1300000000000013
#05912:1300001600001300
#05918:16131316
#05915:0013000000130013
#0591b:0000001300000000
#06312:1313
#06315:00130000
#06318:0000001300000000
#0631b:0000000013000013
#06316:0000000000130000
#06317:00000013
#0681b:1300001300130013
#06818:00000013
#06815:00000000000000000000001300000013
#06812:00000000000000000000000000130000
#06817:0000001300000000
#07012:0013
#07016:00000014
#07019:0000000000130013
#07014:0000001300130013
#0701b:0013
#0721b:00130000
#07219:0013
#07217:00000013
#07216:0000131500000000
#07214:0000000013150000
#07212:1c000013
#07517:1300001300000000
#07516:0000000000130013
#07512:13
#0751b:0000000000001313
#07614:00000000000018000000000000130000
#07618:0000000000130000
#07619:00000013
#0761a:0000000000000013
#07613:00000000000000000000001300000000
#07615:00000000000000000000000000000013
#0761b:00130000
#07617:0013
#07612:00000000000000000013000000000000
#07917:0000130000130000
#0791b:1313
#07912:00131313
#07916:1300000000000013
#07914:0013000000000000
#07919:0000001300000000
#09212:00130013
#09216:0013
#09219:0000000000130000
#09217:00130013
#09215:0000000000000013
#09213:13
#09218:00000000000000000000000000000013
#0931b:1300130000000013
#09317:0000001300000000
#09312:2300000000130000
#09412:0000001300000000
#09416:00130013
#0941b:00001313
#09417:00130000000000000000000000000000
#09418:0000000000000013
#09415:00000000000000000000000000000013
#09618:00001616
#09612:0000000000160000
#03612:0000000000130000
#03614:00000013
#03616:0000000000000013
#0361b:1313
#0361a:00130013
#03712:1300130013000013
#03715:0013000000000000
#03716:0000001300000000
#03714:00000013
#0371b:1313
#0371a:00130013
#04317:13
#0431b:2300000000000013
#04416:1300130000130000
#04419:00000013
#04417:0000000000000013
#0441a:0013000000000000
#04412:00130000
#04514:13130000
#04516:0013000000000000
#04519:00130013
#04517:0000001300000000
#0451b:0000000013000013
#04512:0000001300130000
#04515:0000000000000013
#0071c:0000000000000012
#00717:1200121200120000
#0071a:00000012
#00714:00000012
#00712:0000000000000012
#00816:0000001200000000
#01518:0016000000001212
#01512:1200001600000000
#01515:0012000000000000
#01519:0000001200000000
#0151c:0012
#0151a:2200000000120000
#01514:0000220000120000
#02412:0013
#02416:0000130000130000
#02414:00000013
#02418:0000000000000013
#0241b:00130000
#02417:0013
#02419:00000013
#04218:0013130000000000
#04215:00000013000000000000000000000000
#04212:1300001300001300
#0421b:0000001300001300
#04617:00000000000000130000000000000000
#04618:0000000000000013
#04615:00000000000000000000000000000013
#04612:00131313
#0581b:0000001300000000
#05812:00130013
#05815:0013
#00512:12
#00514:0012000000000000
#00518:00120000
#0051a:0000001200000012
#0051c:0000000000120000
#00516:00000012
#00612:0000120000120000
#00614:0012000000001200
#00616:1200000000000012
#0061c:12
#0061a:0012000000000000
#00618:00120000
#0101a:12
#01012:0012000000000000
#01018:00120012
#01016:0000000000120012
#01614:12
#01616:0012000000120000
#01618:00120012
#0161a:0000001200000000
#0161c:0000000000120000
#01612:00000012
#02312:1300002600000013
#0231b:0000001300000000
#02315:0013000000130000
#02318:2600130013001326
#0251b:1300000000000013
#02518:0013132600130000
#02515:00000013001300000000000013000000
#02512:2600001300000026
#02718:00130000
#02712:2313
#02715:0000000000130000
#0271b:2300000000000013
#03017:13000013
#0301b:00130000
#03016:0013
#03014:0013000000130000
#03019:0013000000130000
#03012:00000013
#0341b:13131300
#03415:00130000001300000000000000000013
#03418:0013001300000013
#03412:00000013000000130013000000000000
#0341a:0000000000130000
#03419:00000013
#03413:00000000000000000000001300000000
#03414:00000000000000000000000000130000
#03816:1300000000000013
#0381b:13130013
#03812:0013
#0391b:1300130000000013
#03919:00000013
#03917:0013001300130000
#03912:1313
#03913:00130013
#0401b:0000000000130000
#04019:00000013
#04017:0000000000000013
#04012:1313
#04013:00130013
#0411b:1300130013000013
#04118:0013000000000000
#04117:0000001300000000
#04119:00000013
#04112:1313
#04113:00130013
#04718:0013000000000000
#04715:00130000
#04717:0000000000130000
#04719:00000013
#04716:0000000000000013
#0471b:2300130000000013
#04712:23
#04710:41
#04814:13
#04812:0013000000000000
#04815:0000130000000015
#04818:0013000000000000
#0481b:00130000
#04816:0000000000150000
#0481a:00000013
#04813:00000013
#0601b:13131300
#06012:00130000001300001300150000000000
#06018:0013001300000000
#06015:00000013000000130000000000000000
#06019:0000000000150000
#0611b:1300000013130000
#06116:0000130000130000
#06117:0013000000001300
#06112:2313000013000000
#0611f:21
#0621b:1300000000130000
#06217:0013000013001300
#06216:1300130000130000
#06212:0013000013000000
#06219:0000000000000013
#06210:41
#06412:13
#06415:00000000000000130013001300130013
#06418:0000001313131313
#0671b:1313
#06718:00130000
#06715:0000001300000000
#06712:0000000013000013
#06717:0000000000130000
#06716:00000013
#06614:0000000000000013
#06612:1300000000130000
#06616:0013000013001300
#06617:1300130000130000
#0661b:0013000013000000
#06512:1300000013130000
#06517:0000130000130000
#06516:0013000000001300
#0651b:2313000013000000
#07112:13130013
#0711b:1313
#06918:13000000001300001300000013000000
#06912:23131300
#0691b:00000000000000130000000000001300
#06915:00000000000013000000000000130000
#07412:1c000013
#0741b:00130000
#07419:0013
#07417:00000013
#07416:0000131500000000
#07414:0000000013150000
#07312:2c130000
#07314:0013
#07316:00000013
#07315:0000001500000000
#07317:0000130000150000
#07319:0013
#0731b:00000013
#07717:0013000000000000
#07715:0000001300000000
#07718:0000000000130000
#07712:00130013
#0771b:23001313
#07719:0000000000000013
#07710:41
#07814:0013000000000013
#07817:0000001300000000
#07819:0000000000130000
#0781b:00131313
#07812:13000013
#08017:13
#08015:0000001313131313
#08018:00000000000000130013001300130013
#08116:0013000000000000
#08118:0000001300000000
#08115:0000000000130000
#08112:23001313
#0811b:00130013
#08114:0000000000000013
#08219:0013000000000013
#08216:0000001300000000
#08214:0000000000130000
#08212:00131313
#0821b:13000013
#08315:13130013
#0831b:0013000000130000
#08318:1313
#08312:0000001300000000
#0861b:0013
#08616:00000014
#08614:0000000000130013
#08619:0000001300130013
#08612:0013
#0871b:13130013
#08712:1313
#08515:13000000001300001300000013000000
#0851b:23131300
#08512:00000000000000130000000000001300
#08518:00000000000013000000000000130000
#08412:0000001300130013
#08415:00000013
#08418:00000000000000000000001300000013
#0841b:00000000000000000000000000130000
#08416:0000001300000000
#08413:14
#08419:14
#08816:00130000
#08817:0013
#08812:00130000
#0881b:00000013
#08818:0000000000000013
#08815:00000000000000000000000000000013
#0891b:00130000001300000013000000130000
#08919:2313131313131313
#08917:00000013000000130000001300000013
#08912:2313000013000000
#08915:0000131300001300
#08910:41
#09012:00130000001300000013000000130000
#09014:2313131313131313
#09016:00000013000000130000001300000013
#09019:0013000013000000
#0901b:0000131300001300
#0911b:00130000001300000013000000130000
#09119:2313131313131313
#09117:00000013000000130000001300000013
#09114:0013000000000000
#09112:0000131300001300
#09115:0013
#10318:0000000000001616
#10312:13000014001400000000000016001600
#10314:0000000000130000
#10319:0000000000130000
#10316:0014001400000000
#1031a:00140000
#1031b:13
#09712:1600002600000016
#09718:2613001600130026
#09715:00131313
#0981b:0013
#09817:0000000000130000
#09819:00130013
#09815:0000000000000013
#09814:00130013
#09816:0013
#10112:1800002400140018
#10116:0014001814001400
#1011a:2400140000000024
#10212:0013
#10216:0000000000130000
#10214:00130013
#10218:0000000000000013
#10217:0013
#10219:00130013
#09918:16000013001326001300000013001600
#09912:2600001600000026
#09915:0013130000130000
#10012:0013000000130000
#10017:0013000000130000
#10019:00130013
#1001b:0000001300000013
#10016:0000001300000000
#10014:0013
#09512:130013000000002c
#09516:0000001300000000
#0951b:2300000000130000
#09519:0013000000000000
#09517:00000013
#0075c:0000000000000052
#00956:52
#01158:52
#0115c:0022000000000062
#01152:0000000022000052
#01156:0000006200000000
#0145c:00520000
#01558:0056000000000000
#0155a:22
#01552:0000006600000000
#01554:00220000
#01952:1300000000000013
#0195b:0000001300000000
#0215b:1300000000000013
#02152:0000001300000000
#03152:53
#0315b:0053
#04357:53
#04456:00630000
#04952:6334
#04956:0023000000000000
#0495b:0053
#04957:0000000000230000
#0495a:44
#05157:53
#05156:0000000000000045
#05358:53
#05355:0000005300000000
#0535b:0023000000000000
#05352:0023
#05452:0000001300000000
#05457:0000001300000000
#05552:5300003300000000
#05558:0000005300000000
#0555b:0000000000000063
#0555a:43
#05556:0000000000000033
#05958:16000016
#05952:1300001600001300
#0595b:0000001300000000
#05757:5300000000000053
#05756:0000005300000000
#0585b:0000002300000000
#07552:53
#07556:0000000000000053
#06857:0000005300000000
#02352:1300000000000013
#0235b:0000001300000000
#0255b:1300000000000013
#02552:0000001300000000
#03257:00330033
#03256:4343
#03355:53
#03358:53
#03756:0000005300000000
#03752:0023
#04157:0000006300000000
#0415b:0023
#04557:0000006300000000
#0455b:0000000023000063
#04657:00000000000000230000000000000000
#0505a:44
#05052:0034
#05255:0035000000000000
#05256:0000004500000000
#05252:0000006300000000
#05656:0000006300000000
#0565b:0000004300000000
#0615b:63
#06152:0053
#06157:0023000000000000
#06156:0000000000230000
#0625b:63
#06257:0023000000000000
#06252:0053
#06256:0000000000230000
#06352:00005333
#06356:0000000000230000
#06357:00000053
#0635b:0000000043000023
#06552:53
#06556:0023000000000000
#0655b:0063
#06557:0000000000230000
#06652:53
#06656:0023000000000000
#0665b:0063
#06657:0000000000230000
#06752:0000000033000023
#0675b:00006343
#06757:0000000000230000
#06756:00000063
#0715b:5353
#07152:00530000
#06958:13
#06952:0013
#0695b:0000000000000013
#07056:0033000000000000
#07057:0000004300000000
#07257:00000013
#07356:00000013
#07457:00000013
#0775b:13
#0795b:00005343
#07952:00003363
#07957:0000000000230000
#07956:0000000000000023
#08152:13
#0835b:0023000000230000
#08358:63336333
#08352:0000002300000000
#08355:43534300
#0875b:00630000
#08752:6363
#08555:13
#0855b:0013
#08552:0000000000000013
#08657:0043000000000000
#08656:0000003300000000
#08456:0000006300000000
#08856:00630000
#08857:0053
#0895b:00230000002300000023000000230000
#08957:00000023000000230000002300000023
#08959:5353535353535353
#09052:00230000002300000023000000230000
#09054:6363636363636363
#09056:00000023000000230000002300000023
#0915b:00230000002300000023000000230000
#09159:5353535353535353
#09157:00000023000000230000002300000023
#09257:00530000
#0935b:4300000000004363
#09352:0000003300000033
#09456:00630000
#09452:0000002300000000
#09457:00230000000000000000000000000000
#10358:0000000000000046
#10352:0000000000003666
#09752:1600000000000016
#09758:0000001600000000
#10152:1800000000000018
#10156:0000001800000000
#09958:1600000000000016
#09952:0000001600000000
#09552:330000000000334c
#0955b:0000004300000000
#003330:12220000
#0033b0:0000001200220000
#003320:0000000000000012
#004320:0000002200000000
#0033c1:0000000000000012
#0043c1:0000002200000000
#0073b1:12220000
#007331:0000001200220000
#0073c1:0000000000000012
#008381:0000002200000000
#009361:12
#009321:00220000
#011381:12220000
#0113c1:0052000000000000
#011361:0000001200220000
#011321:0052
#011321:0000000000000012
#012361:0000002200000000
#0113c0:0000000000000012
#012380:0000002200000000
#0143c0:00120000
#014370:0000000000220000
#0153a0:12220000
#015380:0056000000000000
#015341:00122200
#015321:0000005600000000
#027351:0000132300000000
#0273b0:0000001323000000
#027380:0000000000132300
#027321:0000000000001323
#029361:00130000
#029321:0000002300000000
#029370:0000001300000000
#0293b0:0023
#029370:00000013
#0293b0:0000000000000023
#029361:0000000000000013
#030321:23
#030361:00130000
#030321:0000002300000000
#030370:0000001300000000
#0303b0:0023
#031320:13
#031370:0023
#0313b1:0013
#032361:23
#033381:13
#0333b1:00230000
#033350:13
#033320:00230000
#036320:13
#036340:0033000000000000
#036360:00230000
#037360:0000001300230000
#037320:0053
#038330:0013230000000000
#038390:0000001323000000
#038330:0000000000132300
#0403b0:13
#040390:0033000000000000
#040370:00230000
#041370:0000001300230000
#0413b0:0033
#042350:0000000013230000
#042381:0000000013230000
#043371:13
#043321:0000002300000000
#043370:0000001323000000
#043321:0000000013230000
#043390:0000000000132300
#043341:0000000000001323
#044361:00130000
#0443b1:0000000000230000
#044321:0000000000001323
#0453b1:1323000000000000
#045371:0000001300230000
#0453b1:0053
#0453b1:0000000000000013
#046371:00000000000000530000000000000000
#0463b1:00000023
#047321:0000001300230000
#049321:13230000
#049361:0053000000000000
#0493b1:00001323
#049371:0000000000530000
#051371:13
#0513b1:0000002300000000
#052321:0000001300000000
#052361:0000000000230000
#053381:13230000
#0533b1:0053000000000000
#053351:0000001300230000
#053321:0053
#055321:13
#055351:00230000
#055381:0000001300000000
#0553b1:0000000000230000
#0553b1:0000000000000013
#056371:0023000000000000
#056361:0000001300000000
#056321:0000000000230000
#057371:13
#0573b1:00230000
#057361:0000001300000000
#057321:00000023
#057371:0000000000000013
#0583b1:0000005300000000
#058371:00000023
#0613b1:13230000
#061371:0053000000000000
#061321:00001323
#061361:0000000000530000
#0623b1:13230000
#062371:0053000000000000
#062321:00001323
#062361:0000000000530000
#0633b1:13230000
#063321:00001323
#063361:0000000000530000
#063370:00000013
#0633b0:0000000000000053
#064370:23
#065320:13230000
#065360:0053000000000000
#0653b0:00001323
#065370:0000000000530000
#066320:13230000
#066360:0053000000000000
#0663b0:00001323
#066370:0000000000530000
#067320:13230000
#0673b0:00001323
#067370:0000000000530000
#067361:00000013
#067321:0000000000000053
#068361:23
#068371:0000001300000000
#068321:0000000000230000
#069321:0000000000000013
#070361:0023000000000000
#0703b0:0013000000000000
#070370:0000002300000000
#0713b0:13
#071360:00230000
#071321:00130000
#071371:0023
#0713b0:0013
#071360:00000023
#075320:13
#075360:00230000
#0753b1:00132300
#075320:00001323
#075360:0000000000000013
#076320:00230000
#077320:1323000000000000
#077380:0000132300000000
#077350:0000000013230000
#078370:1323000000000000
#078320:0000132300000000
#078360:0000000013230000
#0793b0:00001323
#079370:0000000000530000
#079321:00000013
#079361:0000000000000053
#080321:23
#0813b1:1323000000000000
#081351:0000132300000000
#081381:0000000013230000
#082361:1323000000000000
#0823b1:0000132300000000
#082371:0000000013230000
#083381:13230000
#0833b1:0053000000000000
#083350:00132300
#083320:0000005300000000
#083381:00001323
#0833b1:0000000000530000
#084361:0000001300000000
#0843b1:0000000000230000
#0853b1:0000000000000013
#086371:0023000000000000
#086320:0013000000000000
#086360:0000002300000000
#087320:13
#087370:00230000
#0873b1:00130000
#087361:0023
#087320:0013
#087370:00000023
#088360:00130000
#0883b0:0023
#088371:0013
#088321:00000023
#089391:1353535353535353
#0893b1:00530000005300000053000000530000
#089371:00000053000000530000005300000053
#090391:23
#090340:1353535353535353
#090320:00530000005300000053000000530000
#090360:00000053000000530000005300000053
#091340:23
#091391:1353535353535353
#0913b1:00530000005300000053000000530000
#091371:00000053000000530000005300000053
#092391:23
#092371:00130000
#0923b1:0023
#093361:00130000
#093321:0000002300000000
#093371:0000000000130000
#0933b1:00000023
#093360:00000013
#093320:0000000000000023
#0933b1:0000000000000013
#094371:00530000000000000000000000000000
#0943b1:00230000
#094360:00132300
#094320:0000005300000000
#095370:00130000
#0953b0:0000002300000000
#095360:0000000000130000
#095320:00000023
#103320:0000000000000016
#107320:00230000
