This file was generated by Ched 2.6.2.0.
#TITLE ""
#ARTIST ""
#DESIGNER ""
#DIFFICULTY 0
#PLAYLEVEL
#SONGID ""
#WAVE ""
#WAVEOFFSET 0
#JACKET ""
#REQUEST "ticks_per_beat 480"
#00002: 4
#BPM01: 197
#00008: 01
#TIL00: ""
#HISPEED 00
#MEASUREHS 00
#0011a:1313
#00315:1313
#00518:1313
#00618:13
#00713:1313
#01019:13
#01214:13
#0131b:13
#01315:0013
#0141b:13
#01412:0013
#01518:13
#01512:0013
#02712:14140000
#02718:00001414
#02814:14140000
#0281a:00001414
#02912:14
#02918:00140000
#0291a:00000014
#02914:0014
#03012:14
#03018:00140000
#03014:0014
#0301a:00000014
#04212:0014
#0421a:0014
#04218:14
#04319:00000014
#04313:0014
#0431a:24
#04312:24
#04414:14000014
#0441a:00140000
#0451a:14
#04513:00140000
#04519:0014
#04512:00000014
#06118:26001414
#06112:00160000
#06114:0000000000140000
#0611f:21
#06212:16
#06214:00001414
#06218:0000160000140000
#06210:41
#06318:16001414
#06312:00160000
#06314:0000000000140000
#07112:00140000
#07116:0014
#0711a:14000014
#0721a:00140000
#07216:0014
#07212:00000014
#0741a:00140000
#07416:0014
#07412:00000014
#07518:14141414
#07514:0014001400140024
#09218:00000014
#0921a:0014
#09214:0000140000000014
#09212:0000000000140000
#0961a:0014
#09612:00001414
#0981a:00001414
#09812:0014
#0351a:00140000
#03512:2414
#03518:00000014
#03510:41
#0371a:1414
#03712:00140000
#03714:00000014
#03612:14
#03618:0014
#0381a:14
#03814:0014
#06412:1414
#0641a:1414
#10318:00140016
#10314:0000001400000000
#10312:1400000000000016
#1031a:14
#06512:00001414
#06518:0000000000140000
#04718:00000014
#04712:14
#04714:0014
#0471a:00140000
#04710:41
#04812:14
#0481a:00140000
#04818:00000014
#04814:0014
#04914:14
#0491a:00140000
#04912:0014
#04918:00000014
#05118:1600000000140000
#05114:0000001400000014
#0511f:11
#05218:0014000000000000
#05212:0000001400000000
#0521a:0000001400000000
#05312:16
#05318:0000001400000014
#05314:0000000000140000
#0541a:0000001400000000
#05414:0014000000000000
#05412:0000001400000000
#05518:16
#05513:0000000000000014
#05519:0000000000140000
#05514:0000001400000000
#05612:0000001400000000
#05618:0014000000000000
#0561a:00000014
#02014:1414
#02018:00140000
#0191a:2414
#01910:41
#02112:1414
#02218:1414
#02214:00140000
#05712:14
#05718:00140014
#05714:0000001400000000
#05914:0000001400000000
#05918:14000014
#0601a:14140000
#06012:14140000
#02412:14
#02414:0014
#02418:00140000
#0261a:14
#02618:0014
#02614:00140000
#03218:00001414
#0321a:14
#03214:0000000000140000
#03212:00140000
#03114:00001414
#03112:14
#03118:0000000000140000
#0311a:00140000
#07018:1414
#07019:00000014
#07013:0000000000000014
#07014:0000140000140000
#07316:0014
#0731a:00000014
#07312:00140000
#00813:13
#04113:00000014
#04119:0014
#04114:00140000
#0411a:14
#0401a:0014
#04014:14
#04012:0014
#03919:00000014
#03913:0014
#03918:00140000
#03912:14
#0661a:00001414
#06614:0000000000140000
#06712:00001414
#06718:0000000000140000
#07712:2614
#07714:00000014
#07718:0000160000140000
#07710:41
#07818:1614
#07812:00160000
#0781a:00000014
#07814:0000000000140000
#07912:1614
#07918:0000160000140000
#07914:00000014
#0871a:00140000
#08716:0014
#08712:14000014
#08812:00140000
#08816:0014
#0881a:00000024
#0801a:1414
#08012:1414
#0811a:0014
#08112:0000000000140000
#08118:00000014
#08212:0014
#0821a:0000000000140000
#08214:00000014
#0831a:0014
#08312:0000000000140000
#08318:00000014
#06814:00000014
#0681a:0014
#06914:00000014
#06912:00140000
#06918:1414
#0021a:13
#00415:13
#09714:0000001400000000
#09918:0000001400000000
#10114:00000014
#10118:00000014
#09418:0000000000000014
#09414:00000014
#08614:1414
#08613:00000014
#0861a:0000000000000014
#08619:0000000000140000
#08618:00140000
#08418:00000014
#08412:0014
#08518:00000014
#0851a:00140000
#08514:1414
#1001a:00002424
#10012:00002424
#09316:0000002400000000
#09314:0000000000240000
#09312:0000000000000024
#0931a:2400000000000024
#09516:0000002400000000
#09518:0000000000240000
#0951a:0000000000000024
#09512:2400000000000024
#08910:41
#0985a:00000054
#09652:00000064
#06052:00140000
#0605a:00140000
#05054:0014
#06752:00000014
#07954:00000014
#08358:00000014
#07554:0000000000000014
#09754:0000002400000000
#09958:0000002400000000
#1005a:00000064
#10052:00000054
#10154:00000024
#10158:00000024
#06358:00000014
#07252:00000014
#0735a:00000014
#10352:0000000000000056
#009390:1323
#011340:1323
#016320:1333333300333333
#017320:0033333300000000
#018320:23
#023340:1424
#025380:1424
#033340:1400003400343400
#034340:24
#046380:1424
#050340:1424
#057340:0000000000000014
#058320:00000024
#065340:14240000
#0653a1:14240000
#066381:14240000
#066320:14240000
#067340:14240000
#0673a1:14240000
#0813a1:14
#081381:00240000
#081340:14
#081320:00240000
#082320:14
#082340:00240000
#082381:14
#0823a1:00240000
#0833a1:14
#083381:00240000
#083340:14
#083320:00240000
#0883a0:00000014
#089380:00000034
#0903a0:0034
#0923a0:24
#096320:00000014
#097340:0000005400000000
#098320:24
#0983a0:00000014
#099380:0000005400000000
#1003a0:24
#1003a0:00000014
#101380:00000054
#1023a0:00000024
#100321:00000014
#101341:00000054
#102321:00000024
#103321:0000000000000016
#107351:00230000
