This file was generated by Ched 2.6.2.0.
#TITLE ""
#ARTIST ""
#DESIGNER ""
#DIFFICULTY 0
#PLAYLEVEL
#SONGID ""
#WAVE ""
#WAVEOFFSET 0
#JACKET ""
#REQUEST "ticks_per_beat 480"
#00002: 4
#BPM01: 95
#00008: 01
#TIL00: ""
#HISPEED 00
#MEASUREHS 00
#00313:0014
#00219:0014
#00419:0014
#00410:0041
#00519:0014
#00613:0014
#00713:0014
#00819:0014
#00913:0014
#01019:0014
#01113:0014
#01712:0014
#01710:0041
#01818:0014
#01912:0014
#0211a:0014
#02214:0014
#0231a:0014
#02518:0014
#02510:0041
#02612:0014
#02718:0014
#04212:16
#04210:0041
#04919:0014
#0331f:0011
#03312:0014
#02914:0014
#0301a:0014
#03010:0041
#03114:0014
#03418:0014
#03514:0014
#0361a:0014
#03712:0014
#03818:0014
#03914:0014
#0401a:0014
#04312:0016
#04418:16
#04412:0016
#04618:16
#04718:0016
#04812:16
#04818:0016
#05013:0014
#05113:0014
#05219:0014
#05413:0014
#05519:0014
#05319:0014
#04118:0026
#0411f:0021
#04512:0026
#01310:0041
#012390:0014
#013390:24
#013320:0016
#014320:0026
#015380:0016
#016380:0026
#020380:0014
#021380:24
#024340:0014
#025340:24
#028320:0014
#029320:24
#0323a0:0014
#0333a0:24
#042380:0016
#043380:26
#046320:0016
#047320:26
#056330:0000000014000024
