This file was generated by Ched 2.6.2.0.
#TITLE ""
#ARTIST ""
#DESIGNER ""
#DIFFICULTY 0
#PLAYLEVEL
#SONGID ""
#WAVE ""
#WAVEOFFSET 0
#JACKET ""
#REQUEST "ticks_per_beat 480"
#00002: 4
#BPM01: 95
#00008: 01
#TIL00: ""
#HISPEED 00
#MEASUREHS 00
#01412:0000001300000000
#01417:0000001300130000
#0141b:0000000000000013
#01416:00001313
#01419:0013000000000000
#0021a:0012
#00213:00000000000000120000000000000000
#00215:00000000000000001200001200000000
#0021c:0000000000000012
#00212:0000000000000012
#00219:00000000000000000000001200000000
#00218:00000000000000120000000000000000
#00312:0000000012000012
#0031c:0000000012000012
#00315:0000000000000000000000000000000000000000000000120000000000000000
#00319:0000000000000000000000000000000000000000000000120000000000000000
#01216:00000000000013000000001300001300
#01217:00001300000000000000130000000013
#01214:00130000
#01219:00130000
#01212:0013000014131400
#0121b:0000001300000013
#0121a:00001414
#0131a:14140000
#01312:1400140023000013
#0131b:00000013
#01316:00000013
#01315:0016000000000000
#01317:0000000023000013
#01314:0000000000130000
#01319:0000000000130000
#01310:0041
#03512:13000000130000002300001300001300
#0351b:00001300000000000013000013000000
#03516:1414000000000000
#03517:00130000
#03518:0013
#03515:0000000000130000
#0371b:00130000
#03716:0000001300000013
#03717:0000000000130000
#03712:13
#0381b:13
#03812:0000000000000013000000000000000000000000000000000000000000000000
#03817:0000001400000014
#03815:0000000000140000
#0391b:1300000000000000000000000000001300000000000000000000000013000000
#03912:1300000000000000000000000000000013000000000000000000000000000013
#03916:0000000000131313
#03918:00000000000000001300000000000000000000000000000000000000000000000000001300000000000000000000000000000000000000000000000000000000
#03915:0013000000000000
#03914:0000001300000000
#03919:0000001300000000
#04017:0013131313001300
#04016:0000000000130000
#0401b:13000000000000001300000000000023
#04012:00000000000013000000000000000023
#04015:00000013000000000000000000000000000000000000000000000000000000000000000000000000000000000000000000000000000000000000000000000000
#01515:0013000000000000
#01518:00130000000000000000000000000000
#0151b:0000000013000013
#01517:00130013
#01519:0000001300130000
#01516:0000000013000013
#01512:00130013
#01514:0000001300130000
#01712:00130013
#01717:0000000000000000130000001300000023000000000000130000000000000013
#01716:1300000000000000000000000000000000000000000000000000001300000000
#0171b:1300001300000013
#01714:0013000000000000
#01719:0013000000000000
#01710:0041
#01812:1300130000130000
#01816:0000000000000000000000000000001300000000000000130000000000000000
#0181b:0000000000000000000000000000000013000000000000001300000000000013
#01817:0000000013000000000000000000000000000013000000000000000013000000
#01912:0000000013000000000000001300000000000000000000130000000000000000
#01914:0000000000000013
#01918:0000000000000000000000000000000000000000000000000000001313000000
#0191b:0000000000000000130000000000000000000000000000001300000000000013
#01916:0000131323000000
#01917:0013000000000000
#02015:0000001313000000000000000000000000000000000000000000000000000000
#02019:0013000000000000
#02016:0000000000000000000000001300000000000000001300000000000000000000
#0201b:00000000001300001300131300000000
#02012:13000000000000131300000000000000
#02018:0000000000000000000000000000000000000000000000000013000000000000
#02017:00130000
#02515:0013000000000000
#02512:1300000000000000130000000000001300000000000000000000000013000000
#02517:0000000000000000000000000000000000000000000000130000000013000000
#0251b:13130000
#02518:0000000013000000000000000000000000000013000000000000000000000000
#02516:0000000000000000000000000000000000000000000000000000000000000013
#02510:0041
#02618:0000001300000000
#02615:0000000000000000000000130000000000000000000000130000000000000000
#02612:0013
#0261b:0000001300000000000000000000000013000013000000000000000000000013
#02616:0000001300000000000000000000000000000000000000000000001300000000
#02712:1300000013000013
#02713:0013000000000000
#02716:0000001300000000000000000000000000000000000000000000000000000000
#02717:0000000000000013000000000000000000000000000000130000000013000000
#0271a:00130000
#02714:0000000000000000000000130000000000000000000000000000000000000000
#02719:0000000000000000000000130000000000000000000000000000000000000000
#0271b:0013
#02916:13
#0291b:1300000000130000
#02912:0000000000130013
#02915:0000000000000000000000000000000000000000000000130000000000000000
#02918:00000013
#02913:0014
#02919:0014
#02917:0000000000000000000000001300000000000000000000000000000000000014
#05312:00130012
#05318:00000012
#05317:0000001300000000000000001300000000000000000000000000000000000000
#0531b:0013130000000000
#05316:130000000000000000000000000000000000000000000000000000000000000000000000000000000000000000000000000000000000000000000000000000000000000000000000000000000000000000000000000000000000000000000000000000000000000000000000000000000000000000000000000000000000000000000000000000000000000000000000000000000000000000000000000000000000000000000000000000000000000000000000000000000000000000000000000000000000000000000000000000000000000000000000000000000000000000000000000000000000000000000000000000000000000000000000000000000000000000000000000000000000000000000000000000000000000000000000000000000000000000000000000000000000000000000000000000000000000000000000000000000000000000000000000000000000000000000000000000000000000000000000000000000000000000000000000000000000000000000000000000000000000000000000000000000000000000000000000000000000000000000000000000000000000000000000000000000000000000000000000000000000000000000000000000000000000000000000000000000000000000000000000000000000000000000000000000000000000000000000000000000000000000000000000000000000000000000000000000000000000000000000000000000000000000000000000000000000000000000000000000000000000000000000000000000000000000000000000000000000000000000000000000000000000000000000000000000000000000000000000000000000000000000000000000000000000000000000000000000000000000000000000000000000000000000000000000000000000000000000000000000000000000000000000000000000000000000000000000000000000000000000001300000000000000000000000000000000000000000000000000000000000000000000000000000000000000000000000000000000000000000000000000000000000000000000000000000000000000000000000000000000000000000000000000000000000000000000000000000000000000000000000000000000000000000000000000000000000000000000000000000000000000000000000000000000000000000000000000000000000000000000000000000000000000000000000000000000000000000000000000000000000000000000000000000000000000000000000000000000000000000000000000000000000000000000000000000000000000000000000000000000000000000000000000000000000000000000000000000000000000000000000000000000000000000000000000000000000000000000000000000000000000000000000000000000000000000000000000000000000000000000000000000000000000000000000000000000000000000000000000000000000000000000000000000000000000000000000000000000000000000000000000000000000000000000000000000000000000000000000000000000000000000000000000000000000000000000000000000000000000000000000000000000000000000000000000000000000000000000000000000000000000000000000000000000000000000000000000000000000000000000000000000000000000000000000000000000000000000000000000000000000000000000000000000000000000000000000000000000000000000000000000000000000000000000000000000000000000000000000000000000000000000000000000000000000000000000000000000000000000000000000000000000000000000000000000000000000000000000000000000000000000000000000000000000000000000000000000000000000000000000000000000000000000000000000000000000000000000000000000000000000000000000000000000000000000000000000000000000000000000000000000000000000000000000000000000000000000000000000000000000000000000000000000000000000000000000000000000000000000000000000000000000000000000000000000000000000000000000000000000000000000000000000000000000000000000000000000000000000000000000000000000000000000000000000000000000000000000000000000000000000000000000000000000000000000000000000000000000000000000000000000000000000000000000000000000000000000000000000000000000000000000000000000000000000000000000000000000000000000000000000000000000000000000000000000000000000000000000000000000000000000000000000000000000000000000000000000000000000000000000000000000000000000000000000000000000000000000000000000000000000000000000000000000000000000000000000000000000000000000000000000000000000000000000000000000000000000000000000000000000000000000000000000000000000000000000000000000000000000000000
#05414:1200000000000012
#0541c:0012001200000000
#05416:0012001200000000
#05419:0012
#0541b:0000000000120000
#05418:00000012
#0541a:1200000000000012
#05413:0012
#05415:0000000000120000
#05412:00000012
#05516:0012000000000000
#05518:00120000000000000000000012000000
#05512:00000012
#0561c:0012001200000000
#05619:0012
#05614:00000000000000120000000000000000
#05612:0000000000120000
#05615:12
#0561a:12
#05616:0012001200000000
#05618:0000000000120000
#04412:0000000000000013000000001300000000000000130000000000000000000000
#0441b:0000000000000013000000000000000013000000000000001300000000000000
#04417:0000000000000000000000000000001300000000000000000000000000000000
#04416:0000000000000000000000130000000000000000000000000000000000000000
#0441a:1400001400000000000000000000000000000000000000000000000000000000
#04414:0016000000000000
#04516:0000000000000000000000000000001400000000140000001400000014000000
#04518:0000000000000000130000130000000000000000000000000000000000000000
#04515:0000000000000013000000001300000000000000000000000000000000000000
#04513:14
#04519:14
#04512:0024
#0451a:0024
#0461a:00001414
#04612:0000001300000000000000001400000000000000140000000000000014000000
#04616:14
#04617:0000001300000000000000000000000000000000000000000000000000000000
#0481a:0000000000000014000000000000000000000000000000000000000000000000
#04812:1400000000000014000000000000000013000000000000131300000000000000
#04816:0000000016000000000000000000001300000000000000000000000000000000
#0481b:0000001300130000
#04817:0000000000000000000000130000000000000000000000000000000000000000
#0511b:0000130000000013
#05117:0000000013000000000000001300000000000013000000002300000000000000
#05112:0013001300001300
#05114:0000000000130000
#05116:0000230013000013
#02118:00000013
#0211b:13000000000013000000001300000000
#02115:00000000000000000000000000130000
#02112:0000130023000013
#02117:00130000
#02116:1300000000000000000000001300000000000000000000000000000000000013
#02119:0013000000000000
#02114:0013000000000000
#0221b:1300000000000000000000000000000000000000130000000000000000000013
#02217:0000000013000000000000000000000000000013000000000000000013000000
#02216:0000000000000014140000130000000013000000000000130000000000000013
#02212:0000000013000000000000000000001300000000000000001300000013000000
#0221a:0000000000000000000000140000000000000000000000000000000000000000
#02316:00000000130000000000001414000013
#02314:0013000000000000
#02319:0013000000000000
#02312:0000001300000013
#02318:0000000000000013
#0231b:00132300
#02317:0000001300000000
#02412:0013000013000000
#02415:0000001300130000
#02418:00000000000000130000000013000000
#0241b:1300130000130000
#02416:00000013000000000000000000001300
#02417:00130000001300000000000000000000
#00418:0000001300001300
#00412:0000130000000013
#0041b:0000130000000013
#00415:00000000000013000000001300000000
#00410:0041
#00517:00001313
#00514:0000000000000013
#00515:001300000000
#00512:00000000000000130000001300000000
#0051b:00000000000000000013000000000000
#00516:0000000000130000
#00518:000000000000000013000000000000000000000000000000000000000000000000000000000000000000000000120000
#00519:0000000000000013
#00616:12000000000000000000001414001300
#00815:00130013
#00818:00000000130000000000001300000000
#0081b:0000001300000013
#00812:0000001300000000
#00817:0000000000000013
#00712:00130013
#00718:0012
#00716:00000000000000120000001400001400
#00713:0000000000130000
#0071a:0000000000130000
#0071b:00000013
#00912:13001300130000000013000000000000
#00916:0013000013001300
#0091b:13000000130000130000001300000000
#00917:0000000000130013
#01016:13
#01019:00000013
#01015:0000000000000013
#01014:00000000000000000000001300000000
#0101b:0000000000000013
#01112:1313001300000000
#0111b:0013131300000000
#01117:00130000
#01116:13
#0471a:14000014
#04716:0000000000160000
#04713:00140000
#04719:00140000
#04712:0014
#04714:0000001600000016
#04715:0000001616000000000000000000000000000000000000000000000000000000
#02812:00001300000000130000001300001300
#0281b:00000000130013000013000000130000
#02817:0012120000000000
#02815:0000001300130000
#02818:00001313
#03017:14
#03015:0000001414000000000000000000000000000000000000000000000000000000
#0301b:00131300
#03012:00130013
#03014:0000000000130013
#03019:0000000000130013
#03010:0041
#0311b:00000000130000000000130000000013
#03112:0000001300130013
#03115:00000013
#03118:0000000000000000000000000000000000000000000000130000000013000000
#03116:13
#03117:0013000000000000
#03113:0014
#03119:0014
#0331b:0013000023000013
#03312:13130013
#03316:1414140000000000
#0331f:0011
#03217:0000000000130000
#03212:0000130000000000000013000000000013000000130000130000000000000000
#03218:0013000013000000
#03215:13130000
#0321b:00000013000013000000000000000000
#04912:00130013
#04917:0000000000000000130000000000000000000000000000001300000000130000
#0491b:0000000000000000000000001300000000000000000000000000001300000000
#0491b:0000001300000000
#04916:0000001300000000
#04919:1413000000000013
#04913:14
#04914:0013000000000000
#05016:1300000000131313
#05017:0013131300000000
#0501b:0000230000130000
#05012:00000023
#04112:0000000024130013
#04117:0000000000000000000000000000000000000014000000000000001400000000
#04115:0000000000000000120000000000000000000000000000140000000000000014
#0411b:00000013
#04119:0000121300000000
#04114:0000001300000000
#0411a:0024
#0411f:0021
#0421b:1313001300130013
#04212:0013000013001300
#04217:0000001400000000000000000000000000000000000000000000000000000000
#04216:0000000000000000000000140000001400000014000000140000001400000014
#04213:00140000
#04219:00140000
#04210:0041
#04312:1300000013000000000000140000000000000000000000001400001400000000
#0431b:0013000000000000
#04316:0000001400000000000000001600001400000000000000140000000016000014
#04314:0000000000160000
#0431a:0000000000000000000000000000000014000014000000000000000000000000
#04319:00140000
#04313:00140000
#03416:0000000000130013
#0341b:0000000000000000130000000000001313000000000000001300000000000000
#03412:1300001300000000
#0161b:0000001300000000
#01616:0000001300130000
#01612:0000000000000013
#01617:00000000000000131300000013000000
#01614:0013000000000000
#05216:0000001300000000000000001300000000000013000000001300000000000000
#05219:0013000000002300
#05217:1300130013000013
#05212:00000000000000130000130000130000
#0521b:00000000001300000000000000000013
#05214:00230000
#03612:0000130000000000130000000000001313000000000000001300000000000000
#03617:0000000000130013
#0361b:13000013000013000000000000000000
#03615:13
#03618:0013000000000000
#04057:0023000053005300
#04056:0000000000530000
#04052:00000000000000000000000000000013
#0405b:63000000000000000000000000000013
#04055:00000023000000000000000000000000000000000000000000000000000000000000000000000000000000000000000000000000000000000000000000000000
#0395b:6300000000000000000000000000005300000000000000000000000000000000
#03952:6300000000000000000000000000000053000000000000000000000000000063
#03956:0000000000230000
#03958:00000000000000002300000000000000000000000000000000000000000000000000002300000000000000000000000000000000000000000000000000000000
#03955:0023000000000000
#02052:1363
#0205b:00000000000000000000006300000000
#02058:0000000000000000000000000000000000000000000000000023000000000000
#02056:0000000000000000000000000000000000000000002300000000000000000000
#0445b:0063
#04452:0000000000630000
#04457:0000000000000043
#0445a:44
#04454:0036000000000000
#0515b:00634300
#05157:0000002300000000
#05152:13000053
#05156:0000000000000023
#05357:0000002300000000
#0535b:00634300
#05356:330000000000000000000000000000000000000000000000000000000000000000000000000000000000000000000000000000000000000000000000000000000000000000000000000000000000000000000000000000000000000000000000000000000000000000000000000000000000000000000000000000000000000000000000000000000000000000000000000000000000000000000000000000000000000000000000000000000000000000000000000000000000000000000000000000000000000000000000000000000000000000000000000000000000000000000000000000000000000000000000000000000000000000000000000000000000000000000000000000000000000000000000000000000000000000000000000000000000000000000000000000000000000000000000000000000000000000000000000000000000000000000000000000000000000000000000000000000000000000000000000000000000000000000000000000000000000000000000000000000000000000000000000000000000000000000000000000000000000000000000000000000000000000000000000000000000000000000000000000000000000000000000000000000000000000000000000000000000000000000000000000000000000000000000000000000000000000000000000000000000000000000000000000000000000000000000000000000000000000000000000000000000000000000000000000000000000000000000000000000000000000000000000000000000000000000000000000000000000000000000000000000000000000000000000000000000000000000000000000000000000000000000000000000000000000000000000000000000000000000000000000000000000000000000000000000000000000000000000000000000000000000000000000000000000000000000000000000000000000000000002300000000000000000000000000000000000000000000000000000000000000000000000000000000000000000000000000000000000000000000000000000000000000000000000000000000000000000000000000000000000000000000000000000000000000000000000000000000000000000000000000000000000000000000000000000000000000000000000000000000000000000000000000000000000000000000000000000000000000000000000000000000000000000000000000000000000000000000000000000000000000000000000000000000000000000000000000000000000000000000000000000000000000000000000000000000000000000000000000000000000000000000000000000000000000000000000000000000000000000000000000000000000000000000000000000000000000000000000000000000000000000000000000000000000000000000000000000000000000000000000000000000000000000000000000000000000000000000000000000000000000000000000000000000000000000000000000000000000000000000000000000000000000000000000000000000000000000000000000000000000000000000000000000000000000000000000000000000000000000000000000000000000000000000000000000000000000000000000000000000000000000000000000000000000000000000000000000000000000000000000000000000000000000000000000000000000000000000000000000000000000000000000000000000000000000000000000000000000000000000000000000000000000000000000000000000000000000000000000000000000000000000000000000000000000000000000000000000000000000000000000000000000000000000000000000000000000000000000000000000000000000000000000000000000000000000000000000000000000000000000000000000000000000000000000000000000000000000000000000000000000000000000000000000000000000000000000000000000000000000000000000000000000000000000000000000000000000000000000000000000000000000000000000000000000000000000000000000000000000000000000000000000000000000000000000000000000000000000000000000000000000000000000000000000000000000000000000000000000000000000000000000000000000000000000000000000000000000000000000000000000000000000000000000000000000000000000000000000000000000000000000000000000000000000000000000000000000000000000000000000000000000000000000000000000000000000000000000000000000000000000000000000000000000000000000000000000000000000000000000000000000000000000000000000000000000000000000000000000000000000000000000000000000000000000000000000000000000000000000000000000000000000000000000000000000000000000000000000000000000000000000000000000000000000000000000000000000000000000000000000000000000000000000000000000000000000000000000000000000000
#05352:00533300
#02452:0053000063000000
#02455:0000000000230000
#02458:00000023
#0245b:6300630000630000
#02457:00230000002300000000000000000000
#02456:00000023000000000000000000000000
#02157:00633300
#0215b:0000002300000000
#00855:00630000
#00858:00630000
#00852:0000002300000000
#0085b:0000002300000000
#00452:00630000
#0045b:00630000
#00455:0000002300000000
#00458:0000002300000000
#01457:0000006300630000
#01456:00005353
#01459:0013000000000000
#0135b:00000063
#01356:00000063
#01352:0000340000000023
#0135a:00440000
#01357:0000000000000023
#0275b:0043
#02752:0000000033000053
#02757:0000000000000053
#0295b:53
#02956:53
#02957:00130000
#02952:0000001300000000
#02958:00000063
#02852:00003300000000230000002300000000
#0285b:00000000430000000023000000230000
#02855:0000006300630000
#02858:00005353
#03257:0000000000630000
#03252:0000230000000000000023000000000000000000000000630000000000000000
#0325b:00000023000000000000000000130000
#03256:0000000000000013
#03255:63630000
#03258:0053000000000000
#03753:0013
#0375a:00000013
#03752:33
#03853:13000013
#0385a:0013
#04957:0000000000000000630000000000000033000000000000005300000000230000
#04952:00630000
#04956:0000002300000000
#0495b:0000000000000000000000002300000000000000000000000000002300000000
#04959:0000000000000053
#05057:0000536300000000
#05056:5300000000006353
#0505b:0013
#04152:0000000000130013
#0415b:00000013
#0425b:1300001300130013
#04252:00001313
#04352:13000034
#04356:0000004600000046
#0435a:0044
#04354:0000000000360000
#02558:0013000000000000
#02555:0013000000000000
#02552:00330000
#0255b:00430000
#03552:00000000330000000000002300003300
#03557:00430000
#0355b:00000000000000000023000063000000
#03558:0053
#03555:0000000000630000
#04652:0000005300000000000000003400000000000000340000000000000034000000
#04657:0000005300000000000000000000000000000000000000000000000000000000
#04656:34
#0465a:00004444
#04556:0000000000443444
#0475a:44000044
#04754:0000003600000036
#04752:0034
#04756:0000000000460000
#00555:002300000000
#00558:002300000000
#0225a:0000000000000000000000440000000000000000000000000000000000000000
#02252:0033000000000000
#01752:00633313
#01757:0000002300000000
#01852:13
#0185b:00001313
#0195b:00534313
#01956:0000002300000000
#00956:00000063
#00957:0000000000000063
#01656:0000005300530000
#01657:00006363
#01654:0013000000000000
#01552:00000053
#01557:00000053
#01556:0000000000000023
#0155b:0000000000000023
#02356:00000000530000004300000000000023
#02352:0000002300000053
#03158:0000000000000053
#0315b:00000000000000000000000000000023
#0335b:0000000000000043
#03352:00000053
#05252:33000000000000230000000000230000
#0525b:00000000002300000000000000000023
#05257:0000630043000063
#05256:0000005300005300
#0265b:0000006300000000000000000000000000000000000000000000000000000000
#02656:0000006300000000000000000000000000000000000000000000000000000000
#04852:3453
#04856:0046000000000033
#0485b:0000000000530000
#0305b:00430000
#03052:00330000
#03452:0000003300000000
#0345b:00630000
#0365b:00000023000043000000000000000000
#03652:00230000530000000000000000000000
#03655:63
#03658:0053000000000000
#0043b0:00132300
#004380:0000005300000000
#004321:00132300
#004351:0000005300000000
#005381:135300000000
#0053b1:00230000
#005350:135300000000
#005320:00230000
#006360:00130000
#006320:0000003323000000
#0063b1:00130000
#006371:0000003323000000
#0063b1:0000000000000013
#007371:23
#007320:13
#007360:0023000000000000
#0073b1:0013000000000000
#007371:00230000
#008351:00132300
#008321:0000005300000000
#008380:00132300
#0083b0:0000005300000000
#009360:00000013
#009320:0000000000000023
#009371:0000000000000013
#0103b1:23
#010321:00130000
#010361:0000003323000000
#010370:00130000
#0103b0:0000003323000000
#011380:0000000000000000000000000000000012000000000032000055550000000000
#011390:0000000000000023
#011361:00000000000000001200003200000000
#011331:0000000000000000000000000000000000000000000000000055550000000000
#011341:0000000000000023
#0133b1:00000013
#013371:0000000000000053
#0143b1:23
#013360:00000013
#013320:0000000000000053
#014360:5323000000000000
#014370:0000001300000000
#0143b0:00000000000000532300000000000000
#014361:0013
#014321:00000000000000000053230000000000
#014370:0000000000130000
#0143b0:00000000000000000000005323000000
#014361:00000013
#014321:00000000000000000000000000532300
#015321:00000013
#015361:0000000000000053
#016321:23
#015370:00000013
#0153b0:0000000000000053
#016370:5323000000000000
#016360:0000001300000000
#016320:00000000000000532300000000000000
#016371:0013
#0163b1:00000000000000000053230000000000
#016360:0000000000130000
#016320:00000000000000000000005323000000
#016371:00000013
#0163b1:00000000000000000000000000532300
#017321:00132300
#017371:0000005300000000
#0183b1:0013000000000000
#018361:00230000
#018321:0000000000000013
#018361:0000000000000000000000000000000000000000000000000000000000000023
#0193b1:00132300
#019361:0000005300000000
#020321:00130000
#020361:00000000002300000000000000000000
#0203b1:0000001300000000
#020371:00000000000000230000000000000000
#020321:0000000000000000000000000000000013000000000000000000002300000000
#020361:0000000000000000000000000000000000000000005300000000000000000000
#0203b0:00000000000000000000001300002300
#020380:0000000000000000000000000000000000000000000000000053000000000000
#021370:00132300
#0213b0:0000005300000000
#023360:00132300
#023320:0000005300000000
#023320:0000000000000013
#023360:00000000000000000000000000000053
#024320:23
#0243b1:1323000000000000
#024371:00530000000000000000000000000000
#024320:0013230000000000
#024360:00000053000000000000000000000000
#0243b1:0000132300000000
#024371:00000000005300000000000000000000
#024321:00001323
#024351:0000000000530000
#0243b0:0000000000130023
#024380:00000053
#025360:0000000000000000000000000000001323000000000000000000000000000000
#025350:0000000000000000000000000000000000000013230000000000000000000000
#0253b0:0000000000000000000000000000000000000000000000132300000000000000
#0253b0:0000000000000000000000000000000000000000000000000000000000000013
#0263b0:0000005300000000000000000000000000000000000000000000000000000000
#026370:0000000000000023000000000000000000000000000000000000000000000000
#026361:0000001300000000000000000000000000000000000000000000000000000000
#026321:0000000000000023000000000000000000000000000000000000000000000000
#026371:0000000000000000000000000000000000000013230000000000000000000000
#026381:0000000000000000000000000000000000000000000000132300000000000000
#026321:0000000000000000000000000000000000000000000000000000001323000000
#027321:0000000000001353
#028361:23
#027370:0000000000000013
#0283b0:23
#028350:0000001323000000
#028320:00000000000000530000000000000000
#028381:0000000013230000
#0283b1:00000000000000000053000000000000
#028350:0000000000132300
#028320:00000000000000000000005300000000
#028381:0000000000001323
#0283b1:00000000000000000000000000530000
#029361:13
#029321:0000532300000000
#0293b0:13
#029370:00230000
#029381:00000013
#0293b1:0000000000000023
#030371:0000000000000000000000000000001323000000000000000000000000000000
#030361:0000000000000000000000000000000000000000000000132300000000000000
#0303b1:0000000000000000000000000000000000000000000000000000000000000013
#0313b1:23
#031321:0000001323000000000000000000000000000000000000000000000000000000
#031361:0000000000000013230000000000000000000000000000000000000000000000
#031371:0000000000000000000000132300000000000000000000000000000000000000
#031381:0000000000000013
#0313b1:00000000000000000000000000000053
#032381:23
#032350:1323000000000000
#032320:00530000000000000000000000000000
#032381:0013230000000000
#0323b1:00000053000000000000000000000000
#032350:0000132300000000
#032320:00000000005300000000000000000000
#032370:0000000000130000
#0323b0:00000000000000000000000053230000
#032321:0000000000000000000000000000000000000000000000130000000000000000
#032361:0000000000000023
#033351:0000000013230000
#033321:00000000000000000033000000000000
#033380:0000000000132300
#0333b0:00000000000000000000003300000000
#033321:00000013
#033361:0000000000000023
#034381:1323000000000000
#0343b1:00330000000000000000000000000000
#034350:0013230000000000
#034320:00000033000000000000000000000000
#0343b1:00130000
#034371:0000002300000000
#034361:00001333
#034321:0000000000330023
#035381:0000000013230000
#0353b1:00000000000000000033000000000000
#035350:0000000000132300
#035320:00000000000000000000003300000000
#0353b1:00000013
#035371:0000000000000023
#036351:1323000000000000
#036321:00330000000000000000000000000000
#036380:0013230000000000
#0363b0:00000033000000000000000000000000
#036321:00130000
#036361:0000002300000000
#036371:00001333
#0363b1:0000000000330033
#037371:23
#037331:00132300
#037321:0000005300000000
#0373a0:00001323
#0373b0:0000000000530000
#037331:00000013
#037321:0000000000000053
#038331:23
#0383a1:00132300
#0383b1:0000005300000000
#038330:00001323
#038320:0000000000530000
#0383b1:00000013
#0393b1:33230000
#039381:0053000000000000
#039320:13230000
#039350:0053000000000000
#0393b0:0000000000000000000000000000001300000000230000000000000000000000
#039380:00000000000000000000000000000000000000000000000000000000000000000000005300000000000000000000000000000000000000000000000000000000
#039321:00001323
#039361:0000000000530000
#039321:0000000000000000000000000000000000000000000000000000000000000013
#040351:00000053000000000000000000000000000000000000000000000000000000000000000000000000000000000000000000000000000000000000000000000000
#040321:0023000000000000
#0403b0:13230000
#040370:0053000000000000
#040370:0013
#040320:0000000000230000
#040361:0000000000130000
#0403b1:00000023
#040370:00000013
#040320:00000000000000000000000000003323
#0403b1:00000000000000000000000000001323
#0443b1:0013
#044371:0000000000230000
#044320:0000000000130000
#044360:00000023
#044320:0000000000000000000000000000000000000000000000000000001323000000
#044371:0000000000000000000000000000000000000000000000000000001323000000
#045321:0000000000000000000000000000000000000014240000000000000000000000
#0453a1:0000000000000000000000000000000000000000000000142400000000000000
#045321:0000000000000000000000000000000000000000000000000000001424000000
#0453a1:0000000000000000000000000000000000000000000000000000000000000014
#0463a1:24
#046321:0000001300000000000000000000000000000000000000000000000000000000
#046361:0000000000000023000000000000000000000000000000000000000000000000
#046370:0000001300000000000000000000000000000000000000000000000000000000
#0463b0:0000000000000023000000000000000000000000000000000000000000000000
#046360:0000000000000000000000142400000000000000000000000000000000000000
#046360:0000000000000000000000000000001424000000000000000000000000000000
#046360:0000000000000000000000000000000000000014240000000000000000000000
#046360:0000000000000000000000000000000000000000000000142400000000000000
#046360:0000000000000000000000000000000000000000000000000000001424000000
#046360:0000000000000000000000000000000000000000000000000000000000000014
#047360:24
#0473a0:0000000000000000000000142400000000000000000000000000000000000000
#047360:0000000000000000000000000000001424000000000000000000000000000000
#047320:0000000000000000000000000000000000000014240000000000000000000000
#047360:0000000000000000000000000000000000000000000000142400000000000000
#0473a0:0000000000000000000000000000000000000000000000000000001424000000
#047360:0000000000000000000000000000000000000000000000000000000000000014
#048360:24
#048320:0000001424000000000000000000000000000000000000000000000000000000
#048320:0013
#048360:0000000000230000
#0483b1:0000000000130000
#048371:00000023
#0483b1:0000000000000000000000000000000000000000000000000000001323000000
#048360:0000000000000000000000000000000000000000000000000000001323000000
#049370:00132300
#0493b0:0000005300000000
#049321:00132300
#049361:0000005300000000
#049371:0000000000000000000000000000000000000000000000001300000000530000
#0493b1:0000000000000000000000000000000000000000000000000000005300000000
#049391:0000000000000053
#0503b1:23
#050360:13
#050320:0023000000000000
#050370:00130000
#050320:00000000000000532300000000000000
#050371:0000001300000000
#0503b1:0023
#050361:00000013
#0503b1:00000000000000000000000000000053
#0513b1:23
#050360:0000000000000013
#051320:23
#0513b0:00132300
#051370:0000005300000000
#051320:00000013
#051360:0000000000000053
#052320:23
#052370:00130000
#0523b0:00000000005300000000000000000000
#052390:0000002300000000
#052361:0000001300000000
#052321:00000000000000530000000000000000
#052341:0023
#052361:00000013
#052321:00000000000000000000000000530000
#052341:0000000000000023
#052370:0000000000000013
#0523b0:00000000000000000000000000000053
#053390:23
#0533b0:00132300
#053370:0000005300000000
#053321:00132300
#053361:000000000000000000000000000000000000000000000000000000000000000000000000000000000000000000000000000000000000000000000000000000000000000000000000000000000000000000000000000000000000000000000000000000000000000000000000000000000000000000000000000000000000000000000000000000000000000000000000000000000000000000000000000000000000000000000000000000000000000000000000000000000000000000000000000000000000000000000000000000000000000000000000000000000000000000000000000000000000000000000000000000000000000000000000000000000000000000000000000000000000000000000000000000000000000000000000000000000000000000000000000000000000000000000000000000000000000000000000000000000000000000000000000000000000000000000000000000000000000000000000000000000000000000000000000000000000000000000000000000000000000000000000000000000000000000000000000000000000000000000000000000000000000000000000000000000000000000000000000000000000000000000000000000000000000000000000000000000000000000000000000000000000000000000000000000000000000000000000000000000000000000000000000000000000000000000000000000000000000000000000000000000000000000000000000000000000000000000000000000000000000000000000000000000000000000000000000000000000000000000000000000000000000000000000000000000000000000000000000000000000000000000000000000000000000000000000000000000000000000000000000000000000000000000000000000000000000000000000000000000000000000000000000000000000000000000000000000000000000000000000005300000000000000000000000000000000000000000000000000000000000000000000000000000000000000000000000000000000000000000000000000000000000000000000000000000000000000000000000000000000000000000000000000000000000000000000000000000000000000000000000000000000000000000000000000000000000000000000000000000000000000000000000000000000000000000000000000000000000000000000000000000000000000000000000000000000000000000000000000000000000000000000000000000000000000000000000000000000000000000000000000000000000000000000000000000000000000000000000000000000000000000000000000000000000000000000000000000000000000000000000000000000000000000000000000000000000000000000000000000000000000000000000000000000000000000000000000000000000000000000000000000000000000000000000000000000000000000000000000000000000000000000000000000000000000000000000000000000000000000000000000000000000000000000000000000000000000000000000000000000000000000000000000000000000000000000000000000000000000000000000000000000000000000000000000000000000000000000000000000000000000000000000000000000000000000000000000000000000000000000000000000000000000000000000000000000000000000000000000000000000000000000000000000000000000000000000000000000000000000000000000000000000000000000000000000000000000000000000000000000000000000000000000000000000000000000000000000000000000000000000000000000000000000000000000000000000000000000000000000000000000000000000000000000000000000000000000000000000000000000000000000000000000000000000000000000000000000000000000000000000000000000000000000000000000000000000000000000000000000000000000000000000000000000000000000000000000000000000000000000000000000000000000000000000000000000000000000000000000000000000000000000000000000000000000000000000000000000000000000000000000000000000000000000000000000000000000000000000000000000000000000000000000000000000000000000000000000000000000000000000000000000000000000000000000000000000000000000000000000000000000000000000000000000000000000000000000000000000000000000000000000000000000000000000000000000000000000000000000000000000000000000000000000000000000000000000000000000000000000000000000000000000000000000000000000000000000000000000000000000000000000000000000000000000000000000000000000000000000000000000000000000000000000000000000000000000000000000000000000000000000000000000000000000000000000000000000000000000000000000000000000000000000000000000000000000000000000000000000000000
#056351:0000000000001222
#056390:0000000000001222
