This file was generated by Ched 2.6.2.0.
#TITLE ""
#ARTIST ""
#DESIGNER ""
#DIFFICULTY 0
#PLAYLEVEL
#SONGID ""
#WAVE ""
#WAVEOFFSET 0
#JACKET ""
#REQUEST "ticks_per_beat 480"
#00002: 4
#BPM01: 95
#00008: 01
#TIL00: ""
#HISPEED 00
#MEASUREHS 00
#00214:0000000000000013
#00219:0013
#00314:0013
#00319:0000000000000013
#00512:14140000
#0051a:00001414
#00614:14
#00612:00001414
#00914:14140000
#00918:00001414
#01812:00140000
#0181a:0014
#01818:14
#01814:00000014
#0251a:0014
#02512:14000014
#02510:0041
#03912:0014
#03914:14
#0391a:00140000
#04114:0000000000140014
#0411a:00002414
#04115:00160000
#0411f:0021
#04214:0014000000000000
#04212:00001414
#04218:0000000000140014
#0421a:14
#04210:0041
#04318:0014000000000000
#04312:1400000000000014
#0431a:0014
#04319:00000014
#04313:0000000000140000
#0041a:00001414
#00410:0041
#0081a:00001414
#00818:14
#01213:00001414
#01219:00001414
#01318:15150000
#01313:0015000000000000
#01310:0041
#01518:14
#01712:00000014
#01714:14
#0171a:0014
#01710:0041
#0191a:14000014
#01912:0016
#01918:00160000
#02714:1414
#0271a:00001414
#02812:14
#02818:14140000
#02814:00001414
#0281a:0014
#0401a:14
#0531a:00140000
#05314:00140000
#05318:00001413
#05312:0014
#0491a:00140000
#04912:00000014
#05114:00000014
#05118:00140000
#0501a:00140000
#05012:00000014
#0331f:0011
#03312:14
#03318:00140000
#0141a:0014
#01412:00000014
#0201a:00140000
#02012:0014
#02014:14
#02018:00000014
#02112:14000014
#02118:00140000
#02214:00140000
#0221a:0014
#02213:14
#02219:00000014
#02318:14160014
#02312:0016
#0241a:00140000
#02414:0014
#02419:14
#02413:00000014
#02618:14
#02612:0014
#0261a:00000014
#02912:14140000
#02918:14
#0301a:14
#03014:00140000
#03010:0041
#03112:1414
#03118:00140000
#0321a:1414
#03214:00140000
#03518:14140000
#03514:0014000000000000
#03618:0000000016000014
#03614:00000014
#03714:14
#03713:00140000
#03719:00140000
#03712:0014
#03718:00000014
#04414:00140000
#04418:1400000000160016
#04412:00001616
#04515:00160000
#0451a:0000000000000014
#04518:0000000000140000
#04514:00000014
#04512:0024
#04612:1400140000000014
#04614:0000000000140000
#04618:00000014
#0461a:0014
#04712:0014
#04714:00000014
#04718:0000000000140000
#0471a:1400140000000014
#04812:1400140000160016
#04818:00001616
#0521a:00140000
#05214:00140000
#05218:00000014
#05212:00000014
#05415:13000013
#05418:0013
#05518:13
#05515:00000013
#05618:13000013
#05615:0000000013000013
#0071a:14140000
#00712:00001414
#01118:14140000
#01114:00001414
#01012:00001414
#01612:0014
#0161a:00000014
#03814:14
#0381a:00140000
#03812:0014
#03818:00000014
#03952:0064
#0405a:54
#0495a:00540000
#04952:00000054
#0505a:00540000
#05052:00000054
#05154:00000064
#05158:00640000
#02158:00540000
#02658:64
#03152:0064
#0325a:0054
#0525a:00540000
#05254:00540000
#05258:00000054
#05252:00000054
#02754:54
#01358:00150000
#010320:14240000
#0123a0:14240000
#0133a0:0014
#013380:00000024
#014320:14
#014340:00240000
#015320:0014
#015340:00000024
#0163a0:14
#016380:00240000
#021380:00140000
#0213a0:0024
#026380:14
#0263a0:00240000
#027340:14
#027320:00240000
#029320:0014
#029340:00000024
#0303a0:0014
#030380:00000024
#031320:0014
#031340:00000024
#0323a0:0014
#032380:00000024
#033320:00001626
#034380:16260000
#034320:00001626
#035380:00001626
#036320:16260000
#039320:0014
#039340:00000024
#0403a0:14
#040380:00240000
#040330:00000000000000001400340034003424
#0493a0:00140000
#049380:0024
#049320:00000014
#050340:24
#0503a0:00140000
#050380:0024
#050320:00000014
#051340:24
#051380:00140000
#0513a0:0024
#051340:00000014
#052320:24
#0523a0:00140000
#052380:0024
#052341:00140000
#052321:0024
#052321:00000014
#053341:24
#052380:00000014
#0533a0:24
