This file was generated by Ched 2.6.2.0.
#TITLE ""
#ARTIST ""
#DESIGNER ""
#DIFFICULTY 0
#PLAYLEVEL
#SONGID ""
#WAVE ""
#WAVEOFFSET 0
#JACKET ""
#REQUEST "ticks_per_beat 480"
#00002: 4
#BPM01: 120
#00008: 01
#TIL00: ""
#HISPEED 00
#MEASUREHS 00
#00019:14
#00219:14
#00313:14
#00113:14
#00419:14
#00410:41
#00519:14
#0121a:14
#01210:41
#01418:14
#0161a:14
#02912:1616
#02910:41
#04419:14
#04513:14
#0201f:11
#02019:14
#00613:14
#00713:14
#00819:14
#00810:41
#00919:14
#01013:14
#01113:14
#01314:14
#01512:14
#01714:14
#01710:41
#01818:14
#01912:14
#02119:14
#02213:14
#02313:14
#02818:2616
#0281f:21
#03218:0016
#03212:26
#03312:16
#03318:0016
#03412:1616
#03512:16
#03518:0016
#03718:1616
#03612:2616
#04012:0016
#04018:26
#04118:16
#04112:0016
#04110:41
#04218:1616
#04318:16
#04312:0016
#04619:14
#04713:14
#024390:14
#025390:24
#026330:14
#027330:24
#030380:16
#031380:0026
#038320:16
#039320:0026
#048390:14
#049390:24
#050330:14000024
