This file was generated by Ched 2.6.2.0.
#TITLE ""
#ARTIST ""
#DESIGNER ""
#DIFFICULTY 0
#PLAYLEVEL
#SONGID ""
#WAVE ""
#WAVEOFFSET 0
#JACKET ""
#REQUEST "ticks_per_beat 480"
#00002: 4
#BPM01: 120
#00008: 01
#TIL00: ""
#HISPEED 00
#MEASUREHS 00
#00512:000013130000000000130000
#0051b:130000000013130000000000
#00516:13
#01118:000000130000000000000013
#01115:001300000000
#01112:001300
#0111b:000000000013000000000000
#01117:13
#01215:130000130000000000001300
#0121b:000013000000000000000013
#01212:000000000013000013000000
#01218:000000001300130000130000
#01210:41
#01316:13
#01317:000013130000000000000000
#01315:000000000013130000000013
#01312:00000012
#0131c:00000012
#02013:14
#02012:00160000
#02019:14
#0201c:00120012
#02018:0012
#0201f:11
#02912:13000013
#0291b:001300000000
#02914:0013
#02918:13
#02919:000000000013000000000000
#02917:000013
#02916:00130000
#02910:41
#03018:1313
#03012:130000000000000000130000000000000000000000001300
#0301b:0013000000130000
#03015:00130013
#03412:001300001300
#03415:000000000013000000000013
#0061b:130000001300000000000013
#00618:000013000000000000130000
#00615:000000130000000013000000
#00612:000000000013000000001300
#00617:0013
#00616:13
#03518:000000000013001300000000
#03515:000013
#03512:00001313
#0351b:000013000000000000130000
#00412:1313
#0041b:000000130000000013130000
#00417:23
#00410:41
#00718:001300000000
#0071b:001300
#00715:00130000
#00712:000000000013000000000000
#00716:13
#0091b:000013130000000000130000
#00912:130000000013130000000000
#00917:13
#01012:130000001300000000000013
#01015:000013000000000000130000
#01018:000000130000000013000000
#0101b:000000000013000000001300
#01016:0013
#01017:13
#0081b:1313
#00812:000000130000000013130000
#00816:13
#00810:41
#02418:00160000
#02412:00120012
#02416:0012
#02515:1313
#02512:00130013
#02616:1313
#0261b:1313
#02612:00130013
#02617:00130013
#02118:1313
#0211b:00130013
#0221b:00130013
#02215:00130013
#02212:1313
#02218:1313
#0151c:00000012
#01512:00000012
#01517:13
#01516:000013130000000000000000
#01518:000000000013130000000013
#01712:130000000013130000120000
#0171c:00000012
#01716:000000000000000000000013
#0171b:000013130000000000000000
#01710:41
#04512:13
#04515:001300130000
#04518:000000130013000000000000
#0451b:00000013
#04517:13
#04516:00000013
#05015:00131600
#05018:13
#0501b:001300
#05012:000000000013000000000000
#04615:000013130000000000130000
#04612:130000000013130000000000
#0181b:130000000000000013130000
#01812:000013130000130000000000
#01817:000000000013000000000000
#01816:000000000000000000000013
#0331b:0000001300001300
#03315:1313
#03318:13130000
#03312:0013000000001300
#01418:130000130000000000001300
#01412:000013000000000000000013
#0141b:000000000013000013000000
#01415:000000001300130000130000
#01615:130000000013000000001300
#01618:000000001300000000000013
#01612:000000130000000013000000
#0161b:000013000000130000130000
#0191b:1313
#01912:000013130000000000000000
#01917:000000000013000000000000
#02712:00130000
#02717:00130000
#0271b:13
#02716:13
#03112:001300000000
#03114:000000000013000000000000
#0311b:00000013
#03116:000013
#0371b:13000013
#03712:001300000000
#03719:0013
#03715:13
#03714:000000000013000000000000
#03716:000013
#03717:00130000
#03815:1313
#03818:13130000
#0381b:000000000000000000130013
#04315:000000000013001300000000
#04318:000013
#0431b:00001313
#04312:000013000000000000130000
#04118:130000000013130000000000
#04112:13
#04115:000013130000000013130000
#04110:41
#04412:00131300
#04416:000013
#0441b:23000013
#04417:001300000000
#04418:0013
#04415:23
#04912:13
#04919:00130000
#04914:0013
#04915:00000013
#04918:13
#04913:00130000
#0491a:0013
#0491b:00000013
#0391b:001300000000
#03919:000000000013000000000000
#03912:00000013
#03917:000013
#04816:13130000
#04817:00001313
#00012:13
#00017:0013
#0001b:00000013
#00015:00000013
#00018:13
#00212:13
#0021b:0013
#00218:130000000013000000000000
#00215:000000000000130000000013
#00312:13
#00318:13
#00115:000000000000000000000013
#0011b:00000013
#00118:13
#0421b:001300001300
#04218:000000000013000000000013
#04718:000013130000000000130000
#0471b:130000000013130000000000
#0281b:230000000000000013230000
#02812:000013230000230000000000
#02816:23
#0281f:21
#02817:0023
#03212:230000000000000013230000
#0321b:000013230000230000000000
#03217:23
#03216:0023
#03615:000013
#03618:001300000000
#03616:23
#0361b:23230000
#03617:0023
#03612:00002323
#04015:001300000000
#04018:000013
#04017:23
#04012:23230000
#04016:0023
#0401b:00002323
#0055b:6363
#00552:00630000
#0285b:63
#02852:0053
#03058:6363
#0305b:0023000000230000
#03052:0000002300000000
#03055:00530000
#00452:2323
#0045b:00230000
#00656:63
#00657:0063
#00756:63
#0095b:00530000
#00952:5353
#0085b:2323
#00852:00230000
#01157:53
#01056:0053
#01057:53
#02458:00560000
#02756:5313
#0275b:5313
#02752:00530000
#02757:00530000
#02555:6363
#02552:00230023
#02656:6363
#0265b:6363
#02652:00530053
#02657:00530053
#02052:00660000
#02352:13
#02358:13
#01357:00530000
#01356:53
#0135b:0013
#01258:0053
#05055:0056
#0215b:00230023
#02158:5353
#02252:6363
#02258:6363
#0225b:00630063
#02255:00630063
#01557:63
#01556:00630000
#01552:0013
#01455:0063
#01752:53
#0175b:00530000
#01758:0013
#0165b:0053
#0185b:63
#01852:0053
#0195b:6343
#03355:53
#03352:0023000000000000
#03358:00630000
#0335b:0000002300000000
#03855:5353
#03858:00630000
#04158:6363
#04155:00530000
#0315b:00000013
#03952:00000013
#03252:53
#0325b:0063
#00358:63
#00255:0063
#00258:63
#03656:53
#03657:0053
#04057:63
#04056:0063
#0355b:00000013
#03552:00000013
#04352:00000013
#0435b:00000013
#001320:13230000
#001381:00132300
#001350:00001323
#002380:13
#0023b0:00230000
#002350:0013
#002320:00000023
#003380:13
#0033b0:000000000023000000000000
#004320:13
#004360:00230000
#0043b1:00130000
#004371:0023
#004320:0013
#004360:00000023
#0053b0:13
#005370:00230000
#005321:00130000
#005361:0023
#0053b0:0013
#005370:00000023
#006360:13
#006320:002300000000
#006370:0013
#0063b0:000023
#007360:13
#007320:002300000000
#007370:0013
#0073b0:000000000000000053230000
#0083b0:13
#008370:00230000
#008321:00130000
#008361:0023
#0083b0:0013
#008370:00000023
#009320:13
#009360:00230000
#0093b1:00130000
#009371:0023
#009320:0013
#009360:00000023
#010370:13
#0103b0:002300000000
#010360:0013
#010320:000023
#011370:13
#0113b0:002300000000
#011360:0013
#011320:000000000000000053230000
#012380:0013
#0123b0:000023
#013360:13
#013320:0053230000000000
#013371:00130000
#0133b1:0000005323000000
#014351:0013
#014321:000023
#015371:13
#0153b1:0053230000000000
#015360:00130000
#015320:0000005323000000
#0163b0:0013
#016380:000023
#017320:13
#017350:0053230000000000
#0173b1:00130000
#017381:0000005323000000
#0183b1:13
#018371:00230000
#018321:0013
#018361:00000023
#0193b1:13
#019371:00230000
#020321:00160000
#021321:00000053
#022321:3300005333000053
#022351:0053330000533300
#023321:23
#021380:13
#0213b0:002300000000
#0213b0:00130000
#021380:000000000023000000000000
#021380:0013
#0213b0:000023
#0213b0:00000013
#021380:000000000000000000000023
#022380:1300005333000053
#0223b0:0053330000533300
#023380:23
#024380:00160000
#0253b0:00000053
#0263b0:3300005333000053
#026370:0053330000533300
#0273b0:3300005323000000
#027370:0053330000000000
#025351:13
#025321:002300000000
#025321:00130000
#025351:000000000023000000000000
#025351:0013
#025321:000023
#025321:00000013
#025351:000000000000000000000023
#026361:1300005333000053
#026321:0053330000533300
#027361:3300005323000000
#027321:0053330000000000
#0283b1:13
#028371:00230000
#028321:0013
#028361:00000023
#030381:13230000
#0303b1:0053000000000000
#030350:00132300
#030320:0000005300000000
#030381:00001323
#0303b1:0000000000530000
#031371:132300000000
#031391:000000130023000000000000
#0313b1:000000132300
#032321:13
#032361:00230000
#0323b1:0013
#032371:00000023
#033351:13230000
#033321:0053000000000000
#033380:00132300
#0333b0:0000005300000000
#0343b0:13
#034380:002300000000
#034380:00130000
#0343b0:000000000023000000000000
#0343b0:0013
#034380:000023
#034380:00000013
#0343b0:000000000000000000000023
#035320:13
#035350:002300000000
#035350:00130000
#035320:000000000023000000000000
#036360:13
#036320:00230000
#036370:0013
#0363b0:00000023
#038350:13
#038320:00230000
#038381:00130000
#0383b1:0023
#038350:0013
#038320:00000023
#039360:132300000000
#039340:000000130023000000000000
#039320:000000132300
#040370:13
#0403b0:00230000
#040360:0013
#040320:00000023
#041380:13
#0413b0:00230000
#041351:00130000
#041321:0023
#041380:0013
#0413b0:00000023
#042320:13
#042350:002300000000
#042350:00130000
#042320:000000000023000000000000
#042320:0013
#042350:000023
#042350:00000013
#042320:000000000000000000000023
#0433b0:13
#043380:002300000000
#043380:00130000
#0433b0:000000000023000000000000
#0463b0:132300000000
#046380:000000130023000000000000
#0463b0:00001323
#047320:132300000000
#047350:000000130023000000000000
#047320:00001323
#0483b0:13230000
#048320:00001323
#050350:0016
#050370:00000022
