This file was generated by Ched 2.6.2.0.
#TITLE ""
#ARTIST ""
#DESIGNER ""
#DIFFICULTY 0
#PLAYLEVEL
#SONGID ""
#WAVE ""
#WAVEOFFSET 0
#JACKET ""
#REQUEST "ticks_per_beat 480"
#00002: 4
#BPM01: 120
#00008: 01
#TIL00: ""
#HISPEED 00
#MEASUREHS 00
#01118:000000001300000000130013
#0111b:131300130000
#01112:000000130013000000000000
#01115:001300000000000013000000
#01215:130000130000000013000000
#0121b:000013000000000000130013
#01212:000000000013000000000000
#01218:000013130000
#01210:41
#01319:000000000013000000000000
#01314:13
#0131a:001300000000
#01313:00130000
#01312:0013
#01315:000000000000000000000013
#02915:13130000
#02912:00000013
#0291b:131300000000
#02914:0013
#02919:000000000013000000000000
#02918:000013
#02910:41
#03018:130000000013000000000000
#03015:000000000000130000000013
#0301b:0013000000000000
#03012:0000000000130000
#00612:13000013
#00615:000013000000001300000000
#0061b:00131300
#00618:001300000000000013000000
#0041b:1313
#00415:0013
#00410:41
#00712:131300130000
#00715:000000001300000000130000
#0071b:000000130013000000000000
#00718:001300000000000013000000
#0331b:00130013
#0331b:00000013
#03312:1313
#0201f:11
#02018:000000000013000000130000
#0201b:00130000
#02015:000000131300
#02019:000000000000000000000013
#02012:00130000
#01818:000000000013000000000000
#01815:000000000000000000000013
#0181b:13
#00315:13
#00218:000000000000130000000013
#00215:130000000013000000000000
#00118:000000000000130000000013
#00115:13130000
#0011b:13
#00112:00001313
#00012:0013
#0001b:13
#00518:000000000013000000000000
#00512:1313
#00515:00130000
#0051b:001300000000
#0101b:13000013
#01018:000013000000001300000000
#01012:00131300
#01015:001300000000000013000000
#01418:130000130000000013000000
#01412:000013000000000000130013
#0141b:000000000013000000000000
#01415:000013130000
#01514:000000000013000000000000
#01519:13
#01513:001300000000
#0151a:00130000
#0151b:0013
#01518:000000000000000000000013
#01615:130000130000000013000000
#0161b:000013000000000000130013
#01612:000000000013000000000000
#01618:000013130000
#0171b:000000000013000000000000
#01715:1313
#01718:00130000
#01712:000013000000000000130000
#01710:41
#01919:000000000013130000000000
#01914:000000000013130000000000
#01915:00130000
#0211b:000000000013000000130000
#02119:00130000
#02114:131300000000
#02112:000000131300
#02512:000000000013000000130000
#02514:00130000
#02519:131300000000
#0251b:000000131300
#02415:000000000013000000130000
#02412:00130000
#02418:000000131300
#02414:000000000000000000000013
#0241b:00130000
#02615:1313
#02612:00130013
#0261b:1313
#02618:00130013
#02715:13
#02712:00130000
#0271b:13
#02718:00130000
#03118:131300000000
#03114:000000130013000000000000
#0311a:000000131300
#03112:00000013
#03412:130013000000000000130000
#03418:130000130000000013000000
#03415:000000000013000000000013
#0341b:0013
#0351b:131300000000
#03515:00130000
#03518:000000000013000000000000
#03512:0013
#03718:13130000
#0371b:00000013
#03712:131300000000
#03719:0013
#03714:000000000013000000000000
#03715:000013
#03815:130000000013000000000000
#03818:000000000000130000000013
#03812:0013000000000000
#0381b:0000000000130000
#04112:00130013
#04112:00000013
#0411b:1313
#04110:41
#03915:131300000000
#03919:000000130013000000000000
#03913:000000131300
#0391b:00000013
#0421b:130013000000000000130000
#04215:130000130000000013000000
#04218:000000000013000000000013
#04212:0013
#04312:131300000000
#04318:00130000
#04315:000000000013000000000000
#0431b:0013
#04412:13
#04418:13
#0441b:0013
#04415:0013
#04515:1313
#04518:000013000000000000130000
#0451b:130000000013000000000000
#04512:00130013
#04614:000000000013000000000000
#04618:00131300
#0461b:13
#04612:001300000000
#04815:13
#04812:00001313
#0481b:13130000
#04818:00000013
#04719:000000000013000000000000
#04715:00131300
#04712:13
#0471b:001300000000
#04912:13
#04918:00130000
#04915:0013
#0491b:00000013
#05012:13
#05015:0036
#00812:1313
#00818:0013
#00810:41
#00915:000000000013000000000000
#0091b:1313
#00918:00130000
#00912:001300000000
#0281b:23
#0281f:21
#02812:0023
#03618:23
#03615:0023
#03612:23
#0361b:0023
#03212:23
#0321b:0023
#04018:23
#04015:0023
#04012:23
#0401b:0023
#0285b:63
#02852:0053
#03058:63
#0305b:0023000000000000
#03055:0053
#03052:0000000000230000
#0045b:2353
#00455:0053
#00355:63
#00258:0063
#00255:63
#00052:0053
#0005b:53
#00552:0053
#01752:00000053
#01755:0013
#02352:13
#02358:13
#02655:5353
#02652:00530053
#0265b:5353
#02658:00530053
#02755:5313
#02752:00530000
#0275b:5313
#02758:00530000
#03352:6363
#0335b:00630000
#03552:0013
#03855:53
#03852:0023000000000000
#03858:0063
#0385b:0000000000230000
#0415b:5353
#04152:00530000
#0435b:0013
#03658:53
#03655:0063
#03652:53
#0365b:0063
#04452:63
#04458:63
#0445b:0053
#04455:0053
#04658:0023
#0185b:63
#03252:53
#0325b:0063
#04755:0023
#00852:2363
#00858:0063
#0095b:0063
#04058:53
#04055:0063
#04052:53
#0405b:0063
#01352:0013
#0155b:0013
#03152:00000013
#0395b:00000013
#0003b0:13
#000380:00230000
#000320:0013
#000350:00000023
#002350:13
#002320:00230000
#002380:0013
#0023b0:00000023
#003350:13
#003320:000000000023000000000000
#0043b0:13
#004380:00230000
#004350:0013
#004320:000000000000000033230000
#0043b1:0013
#004381:000000000000000033230000
#005321:0013
#005351:00000023
#008321:13
#008351:00230000
#008381:0013
#0083b1:000000000000000033230000
#008320:0013
#008350:000000000000000033230000
#0093b0:0013
#009380:00000023
#017320:00000013
#017350:000000000000000000000023
#0183b0:13
#018380:002300000000
#018320:0013
#018350:00000023
#0193b0:13
#019380:002300000000
#022320:1333
#022350:00330033
#023320:23
#022381:1333
#0223b1:00330033
#023381:23
#026351:1333
#026321:00330033
#027351:3323
#027321:00330000
#0263b0:1333
#026380:00330033
#0273b0:3323
#027380:00330000
#0283b0:13
#028380:000033230000000000000000
#028320:0013
#028350:000000000000000033230000
#030380:13230000
#0303b0:0053000000000000
#030350:00001323
#030320:0000000000530000
#032320:13
#032350:000033230000000000000000
#0323b0:0013
#032380:000000000000000033230000
#033320:13
#033350:002300000000
#0333b0:00130000
#033380:000000000023000000000000
#033320:0013
#033350:000023
#036380:13
#0363b0:000033230000000000000000
#036321:13
#036351:000033230000000000000000
#036351:0013
#036321:000000000000000033230000
#0363b0:0013
#036380:000000000000000033230000
#038350:13230000
#038320:0053000000000000
#038380:00001323
#0383b0:0000000000530000
#040380:13
#0403b0:000033230000000000000000
#040321:13
#040351:000033230000000000000000
#040351:0013
#040321:000000000000000033230000
#0403b0:0013
#040380:000000000000000033230000
#0413b0:13
#041380:002300000000
#041320:00130000
#041350:000000000023000000000000
#0413b0:0013
#041380:000023
#044320:13
#044350:000053230000000000000000
#044381:13
#0443b1:000053230000000000000000
#0443b1:0013
#044381:000000000000000033230000
#044350:0013
#044320:000000000000000033230000
#046380:0013
#0463b0:00000023
#047350:0013
#047320:00000023
#050340:00180000
#050350:0036
#050360:00000024
