This file was generated by Ched 2.6.2.0.
#TITLE ""
#ARTIST ""
#DESIGNER ""
#DIFFICULTY 0
#PLAYLEVEL
#SONGID ""
#WAVE ""
#WAVEOFFSET 0
#JACKET ""
#REQUEST "ticks_per_beat 480"
#00002: 4
#BPM01: 120
#00008: 01
#TIL00: ""
#HISPEED 00
#MEASUREHS 00
#00519:001300000000
#0051b:000000130000000013130000
#00514:000000000013000000000000
#00512:1313
#00516:13
#01112:000013000000130000000012
#01118:000000001300000000000012
#01116:13130000
#01115:000000000013000000000000
#0111b:13130000
#01117:0013
#01318:120000000012000000000000
#01319:003200000000000000120000
#01315:00000012
#01314:001200000000
#01312:1200001200000000
#0131c:000000120000000000000000000000000000000000001200
#01316:000000120000000000000012
#0131a:003200120000
#01313:000000003232000000000000
#03017:1313
#03012:13130013
#0301b:000000130000000000001300000000130000000000000000
#03016:0000001300000000
#03015:001300001300
#03018:000000000000000000000013
#03019:003300003300
#03014:000000000033000000000000
#00612:13130013
#00616:131300000000
#00618:000000001300000000000013
#00615:000000000013000000001300
#0061b:00131313
#00617:000000131300
#0351b:000000000013001300130000
#03512:130033130033000013000000
#03517:000013
#03515:000000000000001300000000
#03518:1313
#03516:0013001300001300
#0351a:001200000000
#0351c:00120000
#00412:1313
#00416:0013000000130000
#00417:23130013
#0041b:000000000000000000130000000000001300000000000000
#00410:41
#00712:13130000
#00716:131300130000
#00718:001300
#00715:000000000013000000000000
#0071b:00131300
#02714:000000000033000013130000
#02719:000033000000000013130000
#0271b:000000130000000000001300000000000000000000000000
#02718:1313
#02712:000000001300000000130000000000000000000000000000
#02715:00130000
#01212:120000121200
#0121c:001200120000
#01218:12000012
#01216:00120000
#0121a:000000001200000000000012
#01214:000000000012000000001200
#01210:41
#01713:00000012
#0171b:00000012
#01715:000000000000000000000012
#01719:000000000000000000000012
#01716:12
#0171c:001200000000000000000000
#01714:001200000000
#0171a:00120000
#01718:000000000012120000000000
#01712:000012120000
#01710:41
#04417:13
#0441b:0013000013001300
#04412:2300130000130000
#04415:001300000000
#04416:0013
#04418:000013
#0441a:003300000000
#04413:000033
#04414:000000000000003300000000
#04419:003300000000000000000000
#05012:001c
#05016:000000141414000000000000
#04617:130000000013130000000000
#04612:13000013
#0461b:000000001300130000000000000000130000000000000000
#04615:000000000013
#04618:000000000000000000000013
#04616:00130000
#04619:000033
#0461a:000000000000003300000000
#02419:14
#02413:14
#02414:000000000012000000120000
#0241a:000012
#0241c:0012
#02412:000000120000000000000012
#02312:130000130013000000130000
#02316:00130000
#0311b:13
#03112:00130014
#03115:001300000000
#0311a:0014
#03116:000000000014000014000000
#0201f:11
#02013:140000120012000000120000
#0201b:000012
#02019:1412
#02015:000000000000000000000012
#04812:1313
#0481b:1313
#04815:000000130013000000001300
#04818:000000001300000000130013
#04516:12001214
#04512:001200001200
#04518:00120000
#0451c:000000000012000000000000
#0251a:12
#02512:000000120000000000000012
#02516:000000000012000000120000
#02518:000012
#0251c:001200120000
#0211b:121200120000
#02115:00120000
#02113:000000000012000000120012
#02119:000012
#01516:120000000012000000000000
#01518:000012120000000000000012
#0151c:1200001200000000
#01512:000000120000000000000000120000000000000000001200
#01515:00000012
#01519:00000012
#01513:003232000000000000000000
#0151a:000000003232000000000000
#01416:120000120000000012000000
#01418:000012000000120000120000
#0141c:121200
#01414:000000000012000000000000
#01412:000000120012
#0141a:000000000000000000000012
#01612:12
#01618:12000012
#01616:00121200
#0161a:000000001200000000000012
#01614:000000000012000000001200
#0161c:0012
#01812:12
#01815:001200001200
#01818:00120000
#0181b:000000000012000000000012
#01813:0012
#01819:00000012
#01912:12
#01914:000012120000000000000000
#01916:000000000012120000000000
#0191c:0012
#01016:13130000
#01012:000013000000130000130000
#01018:000000001300000000000013
#01015:000000000013000000001300
#01017:00001313
#0101b:130000130000000013000000
#0081b:1313
#00816:1313000000131300
#00812:000000000000000000130000000000001300000000000000
#00815:00130000
#00810:41
#00316:000000000000000012120000
#00319:000000000012
#00315:000000000000000000000012
#00318:120000000000000000000000000000000012000000000000
#00312:12
#0031c:000000000012000000000000000000000000000000000000
#00314:000000000012000000000000
#02912:00130013
#02917:000013130000000013130000
#0291b:1313
#02916:130000000013130000000000
#02910:41
#0491b:13131313
#04912:13131313
#04917:000000000000000000000000000000000000000000000000000000000000000000000000000000000000000000000000000000000000000000000000000000000000000000000000000000000000000000000000000000000000000000000000000000000000000000000000000000000000000000000000000000000000000000000000000000000000000000000000000000000000000000000000000000000000000000000000000000000000000000000000000000000000000000000000000000000000000000000000000000000000000000000000000000000000000000000000000000000000000000000000001300000000000000000000000000000000000000000000000000000000000000000000000000000000000000000000000000000000000000000000000000000000000000000000000000000000000000000000000000000000000000000000000000000000000000000000000000000000000000000000000000000000000000000000000000000000000000000000000000000000000000000000000000000000000000000000000000000000000000000000000000000000000000000000000000000000000000000000000000000000000000000000000000000000000000000000000000000000000000000000000000000000000000000000000000000000000000000000000000000000000000000000000000000000000000000000000000000000000000000000000000000000000000000000000000000000000000000000000000000000000000000000000000000000000000000000000000000000000000000000000000000000000000000000000000000000000000000000000000000000000000000000000000000000000000000000000000000000000000000000000000000000000000000000000000000000000000000000000000000000000000000000000000000000000000000000000000000000000000000000001300000000000000000000000000000000000000000000000000000000000000000000000000000000000000000000000000000000000000000000000000000000000000000000000000000000000000000000000000000000000000000000000000000000000000000000000000000000000000000000000000000000000000000000000000000000000000000000000000000000000000000000000000000000000000000000000000000000000000000000000000000000000000000000000000000000000000000000000000000000000000000000000000000000000000000000000000000000000000000000000000000000000000000000000000000000000000000000000000000000000000000000000000000000000000000000000000000000000000000000000000000000000000000000000000000000000000000000000000000000000000000000000000000000000000000000000000000000000000000000000000000000000000000000000000000000000000000000000000000000000000000000000000000000000000000000000000000000000000000000000000000000000000000000000000000000000000000000000000000000000000000000000000000000000000000000000000000000000000000000001300000000000000000000000000000000000000000000000000000000000000000000000000000000000000000000000000000000000000000000000000000000000000000000000000000000000000000000000000000000000000000000000000000000000000000000000000000000000000000000000000000000000000000000000000000000000000000000000000000000000000000000000000000000000000000000000000000000000000000000000000000000000000000000000000000000000000000000000000000000000000000000000000000000000000000000000000000000000000000000000000000000000000000000000000000000000000000000000000000000000000000000000000000000000000000000000000000000000000000000000000000000000000000000000000000000000000000000000000000000000000000000000000000000000000000000000000000000000000000000000000000000000000000000000000000000000000000000000000000000000000000000000000000000000000000000000000000000000000000000000000000000000000000000000000000000000000000000000000000000000000000000000000000000000000000000000000000000000000000000001300000000000000000000000000000000000000000000000000000000000000000000000000000000000000000000000000000000000000000000000000000000000000000000000000000000000000000000000000000000000000000000000000000000000000000000000000000000000000000000000000000000000000000000000000000000000000000000000000000000000000000000000000000000000000000000000000000000000000000000000000000000000000000000000000000000000000000000000000000000000000000000000000000000000000000000000000000000000000000000
#04916:0013001300130013
#00012:12
#00014:0012
#0001a:00000012
#00016:00000012
#00018:12
#00212:1200000000120000
#00214:000000120000000000000012
#00218:12
#0021c:0012000012000000
#0021a:000000000012000000120012
#00216:0012
#00114:000000000000000000000012
#0011c:12000012
#02217:1300001300000013
#0221b:00130013
#02216:0013000000130000
#02212:1313
#02214:000033000013000033000013
#02219:000013000033000013000000
#02218:000000000000000000000033
#0261b:000000130000000000001300000000130000000000001300
#02618:1313
#02612:000000001300000000130000000000001300000000130000
#02615:13130013
#02614:000000000033000000000033
#02619:003300003300
#02816:131300000000
#02812:23130000
#02817:000000131300
#0281b:00002313
#0281f:21
#02818:00230000
#02815:00000023
#0331b:00130013
#03316:000013130000000013130000
#03312:1313
#03317:130000000013130000000000
#04718:000000000013
#04715:000000000000000000000013
#04716:130000000013130000000000
#0471b:13000013
#04712:000000001300130000000000000000130000000000000000
#04717:00130000
#04714:000033
#04713:000000000000003300000000
#00914:001300000000
#00912:000000130000000013130000
#00919:000000000013000000000000
#0091b:1313
#00917:13
#03412:130033130033130033130033
#03416:0013001300130013
#03417:13
#0341a:001200001200
#0341c:00120012
#0341b:000000000013000000000013
#03418:0013
#03816:1313
#0381b:13130013
#03812:000000130000000000001300000000130000000000001300
#03817:0000001300000000
#03818:001300001300
#03814:000033
#03819:000000000033000000000000
#03815:003300000000
#04312:000000120013001300130000
#0431b:130033130033000013000000
#04316:000013
#04318:000000000000001300000000
#04315:1313
#04317:0013001300001300
#04314:001200000000
#03915:13
#03918:00130000
#0391b:001300000000
#03916:00001414
#03912:000000000014000000000000
#0391a:000014
#03717:13001313
#0371b:000013130000000013000000
#03712:130000000013130000130000
#03716:00130000
#03612:18002313
#03617:000013000000000000230000
#0361b:23130000
#03616:000000230000180013000000
#04016:180013000000000000230000
#04012:23131800
#04017:000000230000000013000000
#0401b:00002313
#0421b:130033130033130033130033
#04217:0013001300130013
#04216:13
#04214:001200001200
#04212:000000120013000000120013
#04215:0013
#03217:131300000000
#0321b:23130000
#03216:000000131300
#03212:00002313
#03215:00230000
#03218:00000023
#04116:13001313
#04112:000013130000000013000000
#0411b:130000000013130000130000
#04117:00130000
#04110:41
#0055b:00530013
#00556:00000013
#00552:5353
#03057:6363
#0305b:0023000000230000
#03052:00530000
#03056:0000002300000000
#00456:0023000000230000
#0045b:0000002300000000
#00452:5353
#00457:00530000
#00656:53
#00657:0053
#00756:5363
#00757:000013
#00752:00000013
#0075b:0063
#01358:62
#0135c:0022000000000000
#01356:00520000
#01352:0000002200000000
#0135a:0042
#04457:63
#0445b:0023000000000000
#04456:0053
#04452:0000000000230000
#05052:005c
#02352:330000000063000000330000
#02356:000000630000000033000000
#0235b:43000033
#04652:63
#04657:0063
#04656:00530000
#0465b:0000000000230000
#01252:52
#0125c:0062
#01556:52
#01552:0022000032000000
#01558:00620000
#0155c:0000002200000000
#01456:62
#01458:0052
#01652:52
#0165c:0062
#01658:52
#01656:0052
#01752:0012
#01758:0012
#0085b:63006343
#00856:0023000000230000
#00852:0000002300000000
#00855:00630000
#0115b:63000013
#01152:0053
#01157:0053
#01156:000013
#01052:0063
#0105b:63
#0315b:43
#03152:00330034
#0315a:0044
#0355b:00000013
#03552:53530000
#03556:0023002300000000
#02956:5353
#02957:00630000
#02858:00430000
#02856:53
#02857:0063
#02855:00000033
#0495b:53535353
#04952:63636363
#04957:000000000000000000000000000000000000000000000000000000000000000000000000000000000000000000000000000000000000000000000000000000000000000000000000000000000000000000000000000000000000000000000000000000000000000000000000000000000000000000000000000000000000000000000000000000000000000000000000000000000000000000000000000000000000000000000000000000000000000000000000000000000000000000000000000000000000000000000000000000000000000000000000000000000000000000000000000000000000000000000000002300000000000000000000000000000000000000000000000000000000000000000000000000000000000000000000000000000000000000000000000000000000000000000000000000000000000000000000000000000000000000000000000000000000000000000000000000000000000000000000000000000000000000000000000000000000000000000000000000000000000000000000000000000000000000000000000000000000000000000000000000000000000000000000000000000000000000000000000000000000000000000000000000000000000000000000000000000000000000000000000000000000000000000000000000000000000000000000000000000000000000000000000000000000000000000000000000000000000000000000000000000000000000000000000000000000000000000000000000000000000000000000000000000000000000000000000000000000000000000000000000000000000000000000000000000000000000000000000000000000000000000000000000000000000000000000000000000000000000000000000000000000000000000000000000000000000000000000000000000000000000000000000000000000000000000000000000000000000000000000002300000000000000000000000000000000000000000000000000000000000000000000000000000000000000000000000000000000000000000000000000000000000000000000000000000000000000000000000000000000000000000000000000000000000000000000000000000000000000000000000000000000000000000000000000000000000000000000000000000000000000000000000000000000000000000000000000000000000000000000000000000000000000000000000000000000000000000000000000000000000000000000000000000000000000000000000000000000000000000000000000000000000000000000000000000000000000000000000000000000000000000000000000000000000000000000000000000000000000000000000000000000000000000000000000000000000000000000000000000000000000000000000000000000000000000000000000000000000000000000000000000000000000000000000000000000000000000000000000000000000000000000000000000000000000000000000000000000000000000000000000000000000000000000000000000000000000000000000000000000000000000000000000000000000000000000000000000000000000000000002300000000000000000000000000000000000000000000000000000000000000000000000000000000000000000000000000000000000000000000000000000000000000000000000000000000000000000000000000000000000000000000000000000000000000000000000000000000000000000000000000000000000000000000000000000000000000000000000000000000000000000000000000000000000000000000000000000000000000000000000000000000000000000000000000000000000000000000000000000000000000000000000000000000000000000000000000000000000000000000000000000000000000000000000000000000000000000000000000000000000000000000000000000000000000000000000000000000000000000000000000000000000000000000000000000000000000000000000000000000000000000000000000000000000000000000000000000000000000000000000000000000000000000000000000000000000000000000000000000000000000000000000000000000000000000000000000000000000000000000000000000000000000000000000000000000000000000000000000000000000000000000000000000000000000000000000000000000000000000000002300000000000000000000000000000000000000000000000000000000000000000000000000000000000000000000000000000000000000000000000000000000000000000000000000000000000000000000000000000000000000000000000000000000000000000000000000000000000000000000000000000000000000000000000000000000000000000000000000000000000000000000000000000000000000000000000000000000000000000000000000000000000000000000000000000000000000000000000000000000000000000000000000000000000000000000000000000000000000000000
#04956:0023002300230023
#00358:62
#0035c:000000000022000000000000000000000000000000000000
#00258:62
#00256:0052
#00252:0000000000220000
#0025c:0022000000000000
#01956:0042
#0195c:0042
#02257:0000002300000023
#0225b:00630063
#02256:0023000000230000
#02252:5353
#0265b:0023000000230000
#02658:5353
#02652:0000002300000023
#02655:00630063
#0275b:0023000000000000
#02758:5333
#02752:0000002300000000
#02755:00634300
#03357:6363
#03356:00530000
#00952:00630013
#0095b:6363
#00957:00000013
#03456:0023002300230023
#03452:53535353
#03856:5353
#03852:0023000000230000
#0385b:00630000
#03857:0000002300000000
#03955:33
#03958:00430000
#03956:00003444
#04352:00000013
#0435b:63630000
#04357:0023002300000000
#03752:6363
#0375b:00530000
#03652:68
#03656:00335800
#03657:00000043
#04056:58000033
#04052:0068
#04057:00430000
#0425b:63636363
#04257:0023002300230023
#03257:63
#03255:00330000
#03256:0053
#03258:00000043
#0415b:5353
#04152:00630000
#0475b:53
#04756:0053
#04757:00630000
#04752:0000000000230000
#001320:12
#001360:00220000
#0013c1:00120000
#001381:0022
#001320:0012
#001360:00000022
#002380:12220000
#0023c0:0052000000000000
#002360:00001222
#002320:0000000000520000
#003380:120000000022000000000000
#0033c0:000000000052000000000000000000000000000000000000
#004320:13230000
#004360:0053000000000000
#004371:00132300
#0043b1:0000005300000000
#004320:00001323
#004360:0000000000530000
#005320:13
#005360:000033230000000000000000
#0053b1:00130000
#005371:000000000033230000000000
#005320:0013
#005360:000000000000000033230000
#006360:13
#0063b0:002300000000
#006370:0013
#006320:000023
#007360:13
#0073b0:002300000000
#0073b0:0013
#007370:000023
#007361:0013
#007321:000000000000000033230000
#0083b1:13230000
#008361:0053000000000000
#008350:00132300
#008320:0000005300000000
#0083b1:00001323
#008361:0000000000530000
#0093b1:13
#009371:000033230000000000000000
#009320:00130000
#009360:000000000033230000000000
#0093b1:0013
#009371:000000000000000033230000
#0103b1:13
#010371:002300000000
#010321:0013
#010361:000023
#0113b1:13
#011371:002300000000
#011321:0013
#011361:000023
#011370:0013
#0113b0:000000000000000033230000
#012320:12
#012360:002200000000
#0123c0:0012
#012380:000022
#013380:12220000
#013390:003200000000000000000000
#0133c0:0052000000000000
#0133a0:003200000000
#013361:00122200
#013331:000000003232000000000000
#013321:0000005200000000
#014361:12
#014321:002200000000
#014381:0012
#0143c1:000022
#015361:12220000
#015331:003232000000000000000000
#015321:0052000000000000
#015380:00122200
#0153a0:000000003232000000000000
#0153c0:0000005200000000
#016320:12
#016360:002200000000
#016381:12
#0163c1:002200000000
#0163c1:0012
#016381:000022
#016360:0012
#016320:000022
#0183c0:12
#018380:002200000000
#018320:00120000
#018360:000000000022000000000000
#018380:0012
#0183c0:000022
#018360:00000012
#018320:000000000000000000000022
#019380:122200000000
#0193a0:000000120022000000000000
#0203c0:000000120022000000000000
#020360:000000122200
#020380:000000000000000000120022
#021320:122200000000
#021380:000000120022000000000000
#021360:000000122200
#0213c0:000000000000000000120022
#022320:13230000
#022360:0053000000000000
#022340:003300000000
#0223b1:00132300
#022371:0000005300000000
#022391:000000000033000000000000
#022320:00001323
#022360:0000000000530000
#022340:000033
#0223b1:00000013
#022371:0000000000000053
#022381:000000000000000000000033
#0233b1:23
#023361:00130000
#0233b1:000000000033000033230000
#023320:000000000013000000000000
#023360:000000000000005323000000
#024381:000000120022000000000000
#024361:000000122200
#024391:000000000000000000120022
#025351:122200000000
#0253a1:000000120022000000000000
#025341:000000122200
#0253b1:000000000000000000120022
#026381:13230000
#0263b1:0053000000000000
#026391:003300000000
#026350:00132300
#026320:0000005300000000
#026340:000000000033000000000000
#026381:00001323
#0263b1:0000000000530000
#026391:000033
#026350:00000013
#026320:0000000000000053
#026340:000000000000000000000033
#027350:23
#027381:13230000
#0273b1:0053000000000000
#027391:003300000000
#027350:00132300
#027320:0000005300000000
#027340:000000000033000000000000
#028360:13
#0283b0:002300000000
#028370:0013
#028320:000023
#029360:13
#029320:002300000000
#029370:00130000
#0293b0:000000000023000000000000
#029360:0013
#029320:000023
#030370:13230000
#0303b0:0053000000000000
#030390:003300000000
#030321:00132300
#030361:0000005300000000
#030341:000000000033000000000000
#030370:00001323
#0303b0:0000000000530000
#030390:000033
#030350:000000000000000000000013
#031350:23
#031380:000013230000000000000000
#031320:000000000014240000000000
#0313a0:000000000000000014240000
#032370:13
#032320:002300000000
#032360:0013
#0323b0:000023
#033370:13
#0333b0:002300000000
#033360:00130000
#033320:000000000023000000000000
#033370:0013
#0333b0:000023
#034320:130033330033330033330033
#034360:0053005300530053
#035320:330033330033230000000000
#035360:0053005300000000
#036320:182200000000
#036360:0018
#0363c0:000022
#037320:13
#037360:002300000000
#0373b0:00130000
#037370:000000000023000000000000
#037320:0013
#037360:000023
#038360:13230000
#038320:0053000000000000
#038350:003300000000
#0383b1:00132300
#038371:0000005300000000
#038391:000000000033000000000000
#038360:00001323
#038320:0000000000530000
#038340:000033
#038380:000000000000000000000013
#039380:23
#039350:000013230000000000000000
#0393a0:000000000014240000000000
#039320:000000000000000014240000
#040360:18
#0403c0:002200000000
#040320:000000182200
#0413b0:13
#041370:002300000000
#041320:00130000
#041360:000000000023000000000000
#0413b0:0013
#041370:000023
#0423b0:130033330033330033330033
#042370:0053005300530053
#0433b0:330033330033230000000000
#043370:0053005300000000
#044370:13230000
#044390:003300000000000000000000
#0443b0:0053000000000000
#0443a0:003300000000
#044360:00001323
#044340:000000000000003300000000
#044320:0000000000530000
#044330:000033
#045380:12
#0453c0:002200000000
#045360:00120000
#045320:000000000022000000000000
#045380:0012
#0453c0:000022
#046320:13
#046360:002300000000
#046360:00130000
#046320:000000000053230000000000
#046371:00001323
#0463a1:000000000000003300000000
#0463b1:0000000000530000
#046391:000033
#0473b1:13
#047371:002300000000
#047371:00130000
#0473b1:000000000053230000000000
#047360:00001323
#047330:000000000000003300000000
#047320:0000000000530000
#047340:000033
#0493b0:13333333
#049370:000000000000000000000000000000000000000000000000000000000000000000000000000000000000000000000000000000000000000000000000000000000000000000000000000000000000000000000000000000000000000000000000000000000000000000000000000000000000000000000000000000000000000000000000000000000000000000000000000000000000000000000000000000000000000000000000000000000000000000000000000000000000000000000000000000000000000000000000000000000000000000000000000000000000000000000000000000000000000000000000005300000000000000000000000000000000000000000000000000000000000000000000000000000000000000000000000000000000000000000000000000000000000000000000000000000000000000000000000000000000000000000000000000000000000000000000000000000000000000000000000000000000000000000000000000000000000000000000000000000000000000000000000000000000000000000000000000000000000000000000000000000000000000000000000000000000000000000000000000000000000000000000000000000000000000000000000000000000000000000000000000000000000000000000000000000000000000000000000000000000000000000000000000000000000000000000000000000000000000000000000000000000000000000000000000000000000000000000000000000000000000000000000000000000000000000000000000000000000000000000000000000000000000000000000000000000000000000000000000000000000000000000000000000000000000000000000000000000000000000000000000000000000000000000000000000000000000000000000000000000000000000000000000000000000000000000000000000000000000000000005300000000000000000000000000000000000000000000000000000000000000000000000000000000000000000000000000000000000000000000000000000000000000000000000000000000000000000000000000000000000000000000000000000000000000000000000000000000000000000000000000000000000000000000000000000000000000000000000000000000000000000000000000000000000000000000000000000000000000000000000000000000000000000000000000000000000000000000000000000000000000000000000000000000000000000000000000000000000000000000000000000000000000000000000000000000000000000000000000000000000000000000000000000000000000000000000000000000000000000000000000000000000000000000000000000000000000000000000000000000000000000000000000000000000000000000000000000000000000000000000000000000000000000000000000000000000000000000000000000000000000000000000000000000000000000000000000000000000000000000000000000000000000000000000000000000000000000000000000000000000000000000000000000000000000000000000000000000000000000000005300000000000000000000000000000000000000000000000000000000000000000000000000000000000000000000000000000000000000000000000000000000000000000000000000000000000000000000000000000000000000000000000000000000000000000000000000000000000000000000000000000000000000000000000000000000000000000000000000000000000000000000000000000000000000000000000000000000000000000000000000000000000000000000000000000000000000000000000000000000000000000000000000000000000000000000000000000000000000000000000000000000000000000000000000000000000000000000000000000000000000000000000000000000000000000000000000000000000000000000000000000000000000000000000000000000000000000000000000000000000000000000000000000000000000000000000000000000000000000000000000000000000000000000000000000000000000000000000000000000000000000000000000000000000000000000000000000000000000000000000000000000000000000000000000000000000000000000000000000000000000000000000000000000000000000000000000000000000000000000005300000000000000000000000000000000000000000000000000000000000000000000000000000000000000000000000000000000000000000000000000000000000000000000000000000000000000000000000000000000000000000000000000000000000000000000000000000000000000000000000000000000000000000000000000000000000000000000000000000000000000000000000000000000000000000000000000000000000000000000000000000000000000000000000000000000000000000000000000000000000000000000000000000000000000000000000000000000000000000000
#0503b0:23
#049321:13333333
#049361:0053005300530053
#050321:23
#050321:001c
#050371:00000022
