This file was generated by Ched 2.6.2.0.
#TITLE ""
#ARTIST ""
#DESIGNER ""
#DIFFICULTY 0
#PLAYLEVEL
#SONGID ""
#WAVE ""
#WAVEOFFSET 0
#JACKET ""
#REQUEST "ticks_per_beat 480"
#00002: 4
#BPM01: 120
#00008: 01
#TIL00: ""
#HISPEED 00
#MEASUREHS 00
#0001a:14
#00018:0014
#00116:14
#00114:0014
#00412:14140000
#00418:00001414
#00410:41
#00514:14140000
#0051a:00001414
#0121a:1414
#01214:00140014
#01210:41
#0161a:14
#01618:00140014
#01614:0014
#02914:00140014
#02918:1414
#02910:41
#0441a:14
#04416:00140014
#04412:0014
#04512:0014
#0451a:14
#04516:00140014
#0461a:14
#04612:0014
#0101a:14
#01112:14
#01412:1414
#01418:00140014
#0171a:14
#01710:41
#01812:14
#01814:00140014
#01818:0014
#01912:14
#02012:00000014
#0201f:11
#0211a:00000014
#02214:1414
#02218:00140014
#02312:16
#02412:14
#02414:00140000
#0241a:00000014
#0251a:14
#02518:00140000
#02512:00000014
#0261a:14
#02618:00140000
#02616:0014
#02619:00000014
#02613:00000014
#02712:0015
#02713:14140000
#02719:14141500
#03318:00140014
#03314:1414
#03712:1414
#03714:00140014
#03718:1414
#0371a:00140014
#03812:14
#03818:14
#0381a:0014
#03814:0014
#0311a:0014
#03114:00000014
#03512:0014
#03912:14
#03918:14
#03914:00001414
#0391a:00001414
#04719:14
#04713:0014
#05014:00180000
#0501a:14
#0081a:14140000
#00814:00001414
#00810:41
#00918:14140000
#00912:00001414
#0411a:1414
#04118:00140014
#04114:1414
#04112:00140014
#04110:41
#0421a:14
#04214:14
#04212:0014
#04218:0014
#0431a:14
#04314:14
#04318:0014
#04312:0014
#04912:00000014
#04918:14
#04914:00140000
#0491a:0014
#0481a:14
#04812:00000014
#02814:001400000000
#0281a:24140000
#02812:000014
#02818:00002414
#0281f:21
#03614:001400001400
#03618:00140014
#0361a:2424
#03218:001400000000
#03212:24140000
#0321a:000014
#03214:00002414
#04018:001400001400
#04014:00140014
#04012:2424
#0465a:64
#04652:0054
#01152:64
#0105a:64
#0175a:64
#01952:54
#02352:16
#02454:00240000
#02452:64
#0255a:54
#02558:00240000
#02752:0015
#02759:0015
#03852:54
#03858:54
#0385a:0064
#03854:0064
#03952:54
#03958:54
#04759:64
#04753:0054
#05054:00680000
#0425a:64
#04254:64
#04252:0054
#04258:0054
#0435a:64
#04354:64
#04358:0014
#04352:0014
#03552:0014
#002320:14240000
#002380:00001424
#003340:14240000
#0033a0:00001424
#006320:14
#006340:0024
#0073a0:14
#007380:0024
#0103a0:14
#010380:0024
#011320:14
#011340:0024
#0133a0:14
#013380:0024
#015320:14
#015340:0024
#0173a0:14
#017380:0024
#019320:14
#019340:0024
#0203a0:1424
#020380:00340000
#021320:1424
#021340:00340000
#024320:1424
#024340:00540000
#0253a0:1424
#025380:00540000
#030320:14
#030340:00240000
#030381:14
#0303a1:00240000
#030341:0014
#030321:00000024
#0303a0:0014
#030380:00000024
#031320:14
#031340:00240000
#031381:14
#0313a1:00240000
#0343a1:14
#034381:00240000
#034340:14
#034320:00240000
#034380:0014
#0343a0:00000024
#034321:0014
#034341:00000024
#0353a1:14
#035381:00240000
#035340:14
#035320:00240000
#038320:14
#038340:00240000
#038381:14
#0383a1:00240000
#038341:0014
#038321:00000024
#0383a0:0014
#038380:00000024
#039320:14
#039340:00240000
#039381:14
#0393a1:00240000
#0423a1:14
#042381:00240000
#042340:14
#042320:00240000
#042380:0014
#0423a0:00000024
#042321:0014
#042341:00000024
#0433a1:14
#043381:00240000
#043340:14
#043320:00240000
#0463a0:14
#046380:00240000
#046320:0014
#046340:00000024
#047390:14
#047370:00240000
#047330:0014
#047350:00000024
#050340:00180000
#050360:00000024
