This file was generated by Ched 2.6.2.0.
#TITLE "easy"
#ARTIST ""
#DESIGNER ""
#DIFFICULTY 0
#PLAYLEVEL
#SONGID ""
#WAVE ""
#WAVEOFFSET 0
#JACKET ""
#REQUEST "ticks_per_beat 480"
#00002: 4
#BPM01: 190
#00008: 01
#TIL00: ""
#HISPEED 00
#MEASUREHS 00
#00018:14
#00118:14
#00214:14
#00314:14
#01618:14
#01610:41
#01714:14
#0281a:14
#02914:14
#03212:14
#03210:41
#03318:14
#03618:14
#0361f:11
#03712:14
#0381a:14
#03914:14
#04018:14
#04112:14
#0421a:14
#04314:14
#04418:2616
#0441f:21
#04512:1616
#04510:41
#04618:16
#04612:0016
#04718:16
#04812:1616
#04918:1616
#05012:16
#05018:0016
#05112:16
#05218:16
#05212:0016
#05318:16
#05312:0016
#05418:16
#05412:0016
#05518:16
#06012:2616
#06112:16
#06218:2616
#06210:41
#06318:16
#06418:0016
#06412:26
#06512:16
#06612:0016
#06618:26
#06718:16
#06819:1414
#06919:14
#07013:1414
#07113:14
#07218:14
#07214:0014
#07318:14
#07414:14
#07418:0014
#07514:14
#00418:14
#00518:14
#00614:14
#00714:14
#01419:14
#01513:14
#01313:14
#01219:14
#01019:14
#01113:14
#00913:14
#00819:14
#00810:41
#02014:14
#02118:14
#02410:41
#018380:14
#019380:24
#022340:14
#023340:24
#024390:14
#025390:24
#026330:14
#027330:24
#0303a0:14
#0313a0:24
#034320:14
#035320:24
#056320:16
#057320:26
#058380:16
#059380:26
#076380:1400000000000024
