This file was generated by Ched 2.6.2.0.
#TITLE "ex"
#ARTIST ""
#DESIGNER ""
#DIFFICULTY 0
#PLAYLEVEL
#SONGID ""
#WAVE ""
#WAVEOFFSET 0
#JACKET ""
#REQUEST "ticks_per_beat 480"
#00002: 4
#BPM01: 190
#00008: 01
#TIL00: ""
#HISPEED 00
#MEASUREHS 00
#00815:0013001300000000
#00818:00130000
#0081b:2300001300000000
#00810:41
#00918:1313001300000000
#00912:1313000000000013
#01612:2400001300001300
#01615:0013
#01617:0000000000000013
#01618:0000001300000000
#0161a:24
#01610:41
#01816:00000013
#0181b:13130013
#01818:0013000013000000
#01812:13131300
#01815:0000001300000000
#03718:13
#03712:00130000
#0371b:00130000
#03715:13
#0381b:00130000
#03816:14
#03812:00130000
#03916:14
#03919:00130000
#03914:00130000
#04212:1813
#04216:00180000
#0421b:0013
#04815:2313000000000013
#04818:0000131300001300
#0481b:2313
#04812:00130000
#05512:13131300
#05517:0000000013130000
#0551b:00130000
#06018:13
#06418:14
#03615:13160000
#03612:00001313
#0361b:00001313
#0361f:11
#03618:23
#04016:13
#04014:00130000
#04012:0013
#0401b:13
#04017:0013
#04019:00130000
#04114:00000013
#04119:00000013
#01718:00000013
#01715:0000000000130013
#01719:0013000000000000
#0171b:0000001300000000
#00012:1300000013130000
#00018:00130013
#00112:1300001300130000
#00118:00130013
#0021b:00130013
#00215:1300000013130000
#00317:00130000
#00319:0013
#0031b:0000000000001313
#00315:13000000000000000000000000000013
#00312:00130000
#00314:0013
#00316:00000013
#00412:0013130000000000
#00415:0000001300000000
#00418:23130000
#0051b:0013000000000000
#00514:13
#00516:0013001300000000
#00517:0000000000000013
#00519:13
#01115:1313001300000000
#0111b:1313000000000013
#0131b:1313000000000000
#01316:1313000000000000
#01312:0000001300000000
#01318:0000000000000013
#01512:1313000000000000
#01517:1313000000000000
#0151b:0000001300000000
#01515:0000000000000013
#04912:1313
#04918:1313000000000013
#04915:0000131300001300
#0491b:00130000
#04415:0013001300000000
#0441b:00130013
#04418:2313
#04412:2300000000000013
#0441f:21
#0461b:1300001300000000
#04612:0000000013000013
#0561b:0013
#05616:0000000013130000
#05818:13
#05912:1316191c00002600
#05918:00000026
#0201b:0000001300001300
#02018:0013
#02016:0000000000000013
#02015:0000001300000000
#02012:24
#0201a:24
#02212:13130013
#02215:0013000013130000
#0221b:13131300
#02218:0000001300001313
#02115:00000013
#02118:0000000000130013
#02114:0013000000000000
#02112:0000001300000000
#02315:13
#0231b:13
#02318:00130000
#02312:00130000
#00615:13130000
#0061b:0013130000000000
#00618:0000001300000000
#00712:0013000000000000
#00719:13
#00717:0013001300000000
#00714:13
#00716:0000000000000013
#04712:00000013
#04717:00000013
#05116:00000013
#0511b:00000013
#05218:23000013
#05212:0000000000000013
#0541b:13
#05315:13000013
#05318:0000000000000013
#02512:13
#02515:0013000000000000
#02517:13
#0251a:0013000000000000
#0251b:0000001300000000
#02516:0000000000000013
#0281b:0000001300001300
#02818:0013
#02816:0000000000000013
#02815:0000001300000000
#02812:23
#02817:23
#03017:00000013
#03012:13130013
#03015:0013000013000000
#0301b:13131300
#03018:0000001300000000
#02917:0000001300000000
#02915:00000013
#02918:0000000000130013
#02912:0000000000130000
#0341b:13130013
#03418:0013000013130000
#03412:13131300
#03415:0000001300001313
#06912:1300000000000013
#0691b:0013001300000000
#06918:13
#06915:0013000000000000
#01012:1300001300000000
#01018:0013001300000000
#01015:00130000
#01215:0013001300000000
#01218:00130000
#0121b:2313001300000000
#01412:1313001300000000
#01418:0013001300000000
#01415:00130000
#02418:2313001300000000
#02415:00130000
#02412:2313001300000000
#0241b:00130000
#02410:41
#0271b:13
#02718:0013000000000000
#02716:13
#02713:0013000000000000
#02712:0000001300000000
#02717:0000000000000013
#02615:1313001300000000
#02618:00130000
#0261b:0013001300000000
#02612:00130000
#06818:2313001300000000
#06812:2313000000000000
#0711b:1300000000000013
#07112:0013001300000000
#07115:13
#07118:0013000000000000
#07015:0013001300000000
#0701b:2313000000000000
#07312:1300000000000013
#0731b:0013001300000000
#07318:13
#07315:0013000000000000
#07218:0013000000000000
#07212:2313001300000000
#07215:00130000
#07415:2313000000000000
#0741b:0013001300000000
#07418:00130000
#06215:13
#06210:41
#06614:14
#03212:0000001300001300
#03215:0013
#03217:0000000000000013
#03218:0000001300000000
#0321b:23
#03216:23
#03210:41
#03316:0000001300000000
#03318:00000013
#03315:0000000000130013
#0331b:0000000000130000
#04518:0013001300000013
#04512:00130013
#04515:1313
#0451b:13
#04510:41
#05012:1300001300000000
#0501b:0000000013000013
#07512:2323000000000013
#0751b:2323000000000000
#07516:0000002400000000
#07514:0000000000280000
#07612:0000000000000013
#0611a:00000023
#06113:00000023
#06312:00000023
#0631b:00000023
#06512:00000024
#0651a:00000024
#06712:00000024
#0671a:00000024
#06055:00130013
#06058:1313
#06454:00140014
#06458:1414
#03655:13
#03758:13
#03956:14
#04056:33
#04054:00330000
#04052:0033
#04252:3813
#0425b:0013
#04256:00480000
#04355:0033
#04358:0043
#03856:14
#01657:0000000000000043
#03552:0013
#0355b:0013
#05656:00130000
#0565b:00130000
#05757:00130000
#05752:00130000
#01759:0043000000000000
#0175b:0000004300000000
#02056:0000000000000033
#02154:0033000000000000
#02152:0000003300000000
#04152:33
#0415b:0043
#03052:00130000
#0305b:1313
#0345b:00130013
#03452:1313
#06255:1313
#06258:00130013
#06654:1414
#06658:00140014
#06153:00000033
#0615a:00000043
#06158:13
#06352:00000033
#0635b:00000043
#06355:13
#06552:00000034
#0655a:00000044
#06558:14
#06752:00000034
#0675a:00000044
#06754:14
#02856:0000000000000013
#0295b:0013000000000000
#02952:0000001300000000
#03257:0000000000000013
#03352:0013000000000000
#0335b:0000001300000000
#05952:00000036
#05958:00000046
#07552:0000000000000013
#0765b:0000000000000013
#00958:0000001300000000
#00956:0000000000130000
#00957:0000000000000013
#01156:0000000000000013
#01157:0000000000130000
#01155:0000001300000000
#01352:0000001300000000
#0135b:0000000000130000
#01358:0000000000000013
#0155b:0000001300000000
#01552:0000000000130000
#01555:0000000000000013
#02552:0000000000130000
#0255b:0000001300000013
#02752:0000001300000013
#0275b:0000000000130000
#06952:0000000000330033
#0695b:0000004300000000
#0715b:0000000000430043
#07152:0000003300000000
#07352:0000000000330000
#0735b:0000004300000043
#004320:0000000000130023
#004371:0000000000130023
#0053b1:0000001300000000
#005381:0000000000230000
#005350:0000000000130000
#005320:0000000000000023
#0063b0:0000000000130023
#006361:0000000000130023
#007321:0000001300000000
#007351:0000000000230000
#007380:0000000000130000
#0073b0:0000000000000023
#008320:0000000000130000
#008350:0000000000005323
#008381:0000000000130000
#0083b1:0000000000005323
#009321:0000001300000000
#009361:0000000000230000
#0093b0:0000000000130000
#009370:0000000000000023
#0103b0:0000000000130000
#010380:0000000000005323
#010351:0000000000130000
#010321:0000000000005323
#0113b1:0000001300000000
#011371:0000000000230000
#011320:0000000000130000
#011360:0000000000000023
#012320:0000000000130000
#012360:0000000000005323
#012371:0000000000130000
#0123b1:0000000000005323
#013371:0000001300000000
#0133b1:0000000053230000
#013360:0000000000130000
#013320:0000000000005323
#0143b0:0000000000130000
#014370:0000000000005323
#014361:0000000000130000
#014321:0000000000005323
#015361:0000001300000000
#015321:0000000053230000
#015370:0000000000130000
#0153b0:0000000000005323
#0163b0:0013
#016370:00000023
#016320:0000000000000013
#017320:0000002300000000
#018370:0000000000000013
#0193b0:5333000053002300
#019370:0000533300000000
#018321:0000000000000013
#019361:5333000053230000
#019321:0000533300000000
#020320:0013
#020360:00000023
#0203b0:0000000000000013
#0213b0:0000002300000000
#023320:0000001323000000
#023381:0000001323000000
#023351:0000000000001323
#0233b0:0000000000001323
#0243b0:0000000000130000
#024370:0000000000005323
#024361:0000000000130000
#024321:0000000000005323
#025361:0000001300000000
#025321:0000000053230000
#025370:0000000000130000
#0253b0:0000000000005323
#026320:0000000000130000
#026360:0000000000005323
#026371:0000000000130000
#0263b1:0000000000005323
#027371:0000001300000000
#0273b1:0000000053230000
#027360:0000000000130000
#027320:0000000000005323
#028320:0013
#028360:00000023
#0283b0:0000000000000013
#0293b0:0023000000000000
#029321:0013002300000000
#030361:0000000000000013
#031321:5333000053002300
#031361:0000533300000000
#0303b0:0000000000000013
#031370:5333000053230000
#0313b0:0000533300000000
#0323b1:0013
#032371:00000023
#032321:0000000000000013
#033321:0023000000000000
#0333b0:0013002300000000
#035350:13330000
#035320:0000005323000000
#035381:13330000
#0353b1:0000005323000000
#037351:00001323
#037380:00001323
#038320:00001323
#0383b1:00001323
#039381:00001323
#039350:00001323
#040320:00000013
#040350:00000000000000000000000000533353
#041320:23
#040381:00000013
#0403b1:00000000000000000000000000533353
#041381:23
#0413b1:00132300
#041381:00000000005333530000000000000000
#041350:00132300
#041320:00000000005333530000000000000000
#042350:0000000000001333
#043350:33000000005333002300000000000000
#043320:00533300330000000000000000000000
#042381:0000000000001333
#043381:33000000005333002300000000000000
#0433b1:00533300330000000000000000000000
#044321:00001323
#044351:0000000000330000
#0453b1:00001323
#045381:0000000000330000
#046321:1323000000000000
#046380:0013230000000000
#046351:0000132300000000
#0463b1:0000000013230000
#046350:0000000000132300
#046381:0000000000001323
#047321:13
#047361:00332300
#0473b0:00132300
#048350:0013
#048320:0000000000332300
#049380:0013
#0493b0:0000000000332300
#0503b0:1323000000000000
#050351:0013230000000000
#050380:0000132300000000
#050320:0000000013230000
#050381:0000000000132300
#050350:0000000000001323
#0513b0:13
#051370:00332300
#051321:00132300
#052321:13230000
#052341:00533353000000000000000000000000
#052380:00132300
#0523a0:00000000005333530000000000000000
#052321:00001323
#052341:00000000000000000053335300000000
#0533b1:13230000
#053391:00533353000000000000000000000000
#053350:00132300
#053330:00000000005333530000000000000000
#0533b1:00001323
#053391:00000000000000000053335300000000
#054321:13230000
#054351:00533353000000000000000000000000
#0543b0:00132300
#054380:00000000005333530000000000000000
#054321:00001323
#054351:00000000000000000053335300000000
#0543b0:00000013
#054380:00000000000000000000000000533353
#0553b0:23
#055320:0000000000130033
#056360:00230000
#055371:0000000000000013
#0563b1:00230000
#0563b1:0000000000130033
#057371:00230000
#056360:0000000000000013
#057320:00230000
#057320:0013
#057350:0000000000532300
#0573b1:0013
#057381:0000000000532300
#058351:13230000
#058331:00535353000000000000000000000000
#058380:00132300
#0583a0:00000000005353530000000000000000
#058351:00001323
#058321:00000000000000000053535300000000
#058380:00000013
#0583b0:00000000000000000000000000535353
#059380:23
#059320:00000000000000001600363626000000
#059381:00000000000000001600363626000000
#060351:13230000
#060380:00132300
#060351:00001323
#060380:00000013
#061380:23
#061331:13230000
#061351:00533353000000000000000000000000
#0613a0:00132300
#061380:00000000005333530000000000000000
#061331:00001323
#061351:00000000000000000053335300000000
#062381:13230000
#062350:00132300
#062381:00001323
#062350:00000013
#063350:23
#0633b1:13230000
#063381:00533353000000000000000000000000
#063320:00132300
#063350:00000000005333530000000000000000
#0633b1:00001323
#063381:00000000000000000053335300000000
#064341:14240000
#064380:00142400
#064341:00001424
#064380:00000014
#065380:24
#065321:14240000
#065351:00543454000000000000000000000000
#0653a0:00142400
#065370:00000000005434540000000000000000
#065321:00001424
#065351:00000000000000000054345400000000
#066381:14240000
#066340:00142400
#066381:00001424
#066340:00000014
#067340:24
#0673a1:14240000
#067361:00543454000000000000000000000000
#067320:00142400
#067360:00000000005434540000000000000000
#0673a1:00001424
#067361:00000000000000000054345400000000
#068351:00130000
#068321:0000002300000000
#068321:0000000000130000
#068351:0000000000003323
#068380:0000000000130000
#0683b0:0000000000003323
#069320:0000001300230000
#069350:00000000000000533353000000000000
#069381:0000000000130023
#0693b1:00000000000000000000005333530000
#070381:00130000
#0703b1:0000002300000000
#0703b1:0000000000130000
#070381:0000000000003323
#070350:0000000000130000
#070320:0000000000003323
#0713b0:0000001300230000
#071380:00000000000000533353000000000000
#071351:0000000000130023
#071321:00000000000000000000005333530000
#0723b1:00130000
#072381:0000002300000000
#072351:0000000000130023
#072321:00000033
#072380:0000000000130023
#0723b0:00000033
#073320:0000001300230000
#073350:00000000000000533353000000000000
#0733b1:0000000000130023
#073381:00000000000000000000005333530000
#074321:00130000
#074351:0000002300000000
#074381:0000000000130023
#0743b1:00000033
#074350:0000000000130023
#074320:00000033
#0753b0:0000000000000013
#0763b0:0000000000000023
