This file was generated by Ched 2.6.2.0.
#TITLE "hard"
#ARTIST ""
#DESIGNER ""
#DIFFICULTY 0
#PLAYLEVEL
#SONGID ""
#WAVE ""
#WAVEOFFSET 0
#JACKET ""
#REQUEST "ticks_per_beat 480"
#00002: 4
#BPM01: 190
#00008: 01
#TIL00: ""
#HISPEED 00
#MEASUREHS 00
#01618:2613
#0161b:00000013
#01612:0000001300000000
#01615:00000013
#01610:41
#01818:00130013
#01812:0013000000001300
#0181b:1313
#01815:0000001300000000
#03715:16
#0371b:00130000
#03712:00130000
#03812:00130000
#03815:16
#0381b:00130000
#03915:16160000
#04218:14
#04214:00140000
#0421a:0014
#0551b:0000000013130000
#05515:0000000013130000
#03615:16
#0361b:0013
#03612:0013
#0361f:11
#01718:00000013
#01712:0000000000130000
#01715:0000000000000013
#00415:0013000000000000
#00412:0000001300000000
#00418:00130000
#0041b:23
#04418:00130000
#04415:2313
#04412:00000013
#0441b:23000013
#0441f:21
#05812:13
#05815:00130000
#02218:0000001300000013
#02215:00130013
#0221b:0013000000130000
#02212:1313
#00318:13
#00312:00131313
#0031b:00131313
#00018:1313
#0001b:00130013
#00012:00130013
#00015:0000000000130000
#00515:1300001300130000
#00518:0013000000000013
#0051b:0000001300130000
#00612:13
#00618:0013000000000000
#0061b:0000001300000000
#00615:00130000
#00718:1300001300130000
#00715:0013000000000013
#00712:0000001300130000
#00815:0013000000000013
#00818:23130000
#00812:0000001300000000
#0081b:0000000000130000
#00810:41
#00918:13
#00915:0013000000000000
#01015:13130000
#01018:0013000000000013
#0101b:0000001300000000
#01012:0000000000130000
#01115:13
#01118:0013000000000000
#01215:0013000000000013
#01218:00130000
#01212:0000001300000000
#0121b:2300000000130000
#01318:13
#01312:0013000000000000
#01412:1300000000130000
#01418:0013000000000013
#01415:00130000
#0141b:0000001300000000
#01515:13
#0151b:0013000000000000
#02015:0013
#02012:26000013
#0201b:0000001300000000
#02018:00000013
#02115:00000013
#0211b:0000000000130000
#02118:0000000000000013
#01912:00000014
#01918:00000014
#02515:1300001300000000
#0251b:0000001300000000
#02518:0013000000000000
#02415:0000001300000000
#02418:00130000
#02412:2313000000000000
#02410:41
#02718:1300001300000000
#02715:0013000000000000
#02712:0000001300000000
#02815:0013
#02812:00000013
#02818:0000001300001300
#02814:24
#0281a:24
#03015:00130013
#0301b:0013000000001300
#03012:1313
#03018:0000001300000000
#02915:00000013
#0291b:0000000000130000
#02918:0000000000000013
#0311a:00000014
#03114:00000014
#03218:2413
#0321b:00000013
#03215:0000001300001300
#03212:24
#03210:41
#03419:00000013
#03414:00000013
#03412:0013000000130000
#0341b:1313
#03415:0000001300000000
#03418:00130000
#03318:00000013
#03312:0000000000130000
#03315:0000000000000013
#0411a:14
#04114:14
#04112:0014
#04118:0014
#05718:0013
#05712:0013
#05715:00000013
#0571b:00000013
#06118:13
#06112:13
#06114:00000023
#0611a:00000023
#06915:0013000000000000
#06918:13
#06818:0000001300000000
#06812:00130000
#0681b:2313000000000000
#07315:0013000000000000
#0731b:23
#07218:0013001300000000
#07215:00130000
#0721b:13
#07518:0013000000000000
#07512:13
#04518:1313
#04512:13000013
#04515:00130000
#0451b:00000013
#04510:41
#06518:14
#06512:14
#06519:00240000
#06513:00240000
#06714:14
#0671a:14
#06713:00240000
#06719:00240000
#00118:1313
#0011b:00130013
#00112:00130013
#00115:0000000000130000
#00218:1313
#00212:00130013
#0021b:00130013
#00215:0000000000130000
#02312:0000001300000000
#02318:0013
#02315:00000013
#0231b:0000000000000013
#02618:0000001300000000
#02615:00130000
#0261b:1313000000000000
#05612:0000000013130000
#05618:0000000013130000
#07118:0013000000000000
#07115:13
#07015:0000001300000000
#0701b:00130000
#07012:2313000000000000
#07415:0013001300000000
#07418:00130000
#07412:23
#07618:0000000000000016
#04815:00130000
#04818:2313
#0481b:00000013
#04812:23000013
#04915:1313
#0491b:13000013
#04918:00130000
#04912:00000013
#06315:13
#0631b:13
#06319:00000023
#06313:00000023
#0461a:14
#04616:00140014
#04612:0014
#05012:14
#05016:00140014
#0501a:0014
#05912:00000024
#06210:41
#03655:16
#03755:16
#03955:16
#04258:44
#0425a:0014
#04254:00340000
#03855:16
#03555:0013
#03558:0013
#00852:0000001300000000
#0105b:0000001300000000
#01252:0000001300000000
#0145b:0000001300000000
#02258:0000000000000013
#02455:0000001300000000
#0415a:44
#04154:44
#04152:0034
#04158:0034
#0435a:0014
#04352:0014
#06154:00000033
#0615a:00000033
#06858:0000001300000000
#07258:0000001300000000
#02658:0000001300000000
#0405b:0013
#04056:0013
#05952:00000014
#06553:00000034
#06559:00000034
#06753:00000044
#06759:00000044
#07055:0000001300000000
#07455:0000001300000000
#07658:0000000000000046
#06359:00000043
#06353:00000043
#004380:0000000000130023
#006350:0000000000130023
#009320:0000001300000000
#009350:0000000000330023
#009381:0000001300000000
#0093b1:0000000000330023
#011351:0000001300000000
#011321:0000000000330023
#0113b0:0000001300000000
#011380:0000000000330023
#013380:0000001300000000
#0133b0:0000000000330023
#013351:0000001300000000
#013321:0000000000330023
#015321:0000001300000000
#015351:0000000000330023
#0153b0:0000001300000000
#015380:0000000000330023
#0163b0:0000000000000013
#017380:0033000000000000
#0173b0:0000002300000000
#016351:0000000000000013
#017321:0033000000000000
#017351:0000002300000000
#018321:0000000000000013
#019351:0033002300000000
#018380:0000000000000013
#0193b0:0033002300000000
#020320:0000000000000013
#021350:0033000000000000
#021320:0000002300000000
#020381:0000000000000013
#0213b1:0033000000000000
#021381:0000002300000000
#024381:0000000000130000
#0243b1:0000000000005323
#025321:0000000000130000
#025351:0000000000005323
#025380:0000000000130000
#0253b0:0000000000005323
#026350:0000000000130000
#026320:0000000000005323
#027350:0000000000130000
#027320:0000000000005323
#0273b1:0000000000130000
#027381:0000000000005323
#028321:0000000000000013
#029321:0033000000000000
#029351:0000532300000000
#028380:0000000000000013
#029380:0033000000000000
#0293b0:0000532300000000
#0303b0:0000000000000013
#031380:5333000000000000
#0313b0:0000532300000000
#030351:0000000000000013
#031321:5333000000000000
#031351:0000532300000000
#0323b1:0000000000000013
#0333b1:0033000000000000
#033381:0000532300000000
#032350:0000000000000013
#033350:0033000000000000
#033320:0000532300000000
#035320:13330000
#035350:0000005323000000
#0353b1:13330000
#035381:0000005323000000
#037351:00001626
#038321:0013
#038351:0000000000532300
#0383b0:0013
#038380:0000000000532300
#039340:00001323
#039391:00001323
#040321:13
#040341:0053330000000000
#040361:0000005323000000
#040370:13
#040390:0053330000000000
#0403b0:0000005323000000
#042320:00000014
#043320:3400005424000000
#043340:0054340000000000
#0433a1:1400005424000000
#043381:0054340000000000
#0473b1:13000023
#047381:00535300
#047350:13000023
#047320:00535300
#051320:13000023
#051350:00535300
#051381:13000023
#0513b1:00535300
#0523a1:1400005434000000
#052371:0054340000542400
#053321:1400005434000000
#053351:0054340000542400
#0543a1:1400005434000054
#054381:0054340000543400
#0553a1:24
#054320:1400005434000054
#054340:0054340000543400
#055320:24
#055350:0000000000000013
#056320:00230000
#0553b1:0000000000000013
#056381:00230000
#056381:0000000000000013
#0573b1:00230000
#056320:0000000000000013
#057350:00230000
#058380:0013
#0583b0:0000000000532300
#059320:1400005434002400
#059350:0054340000000000
#060350:13
#060320:0053230000000000
#0603b1:13
#060381:0053230000000000
#060381:0013
#0603b1:0000000000532300
#060320:0013
#060350:0000000000532300
#0613a0:00133323
#061390:00000000005300530000000000000000
#0613b0:00000000000000000053005300000000
#061341:00133323
#061331:00000000005300530000000000000000
#061351:00000000000000000053005300000000
#062381:13
#0623b1:0053230000000000
#062320:13
#062350:0053230000000000
#062350:0013
#062320:0000000000532300
#0623b1:0013
#062381:0000000000532300
#063331:00133323
#063341:00000000005300530000000000000000
#063321:00000000000000000053005300000000
#063390:00133323
#0633a0:00000000005300530000000000000000
#063380:00000000000000000053005300000000
#064350:14
#064320:0054240000000000
#0643a1:14
#064371:0054240000000000
#064371:0014
#0643a1:0000000000542400
#064320:0014
#064350:0000000000542400
#065390:00143424
#065380:00000000005400540000000000000000
#0653a0:00000000000000000054005400000000
#065331:00143424
#065321:00000000005400540000000000000000
#065341:00000000000000000054005400000000
#066371:14
#0663a1:0054240000000000
#066320:14
#066350:0054240000000000
#066350:0014
#066320:0000000000542400
#0663a1:0014
#066371:0000000000542400
#067331:00143424
#067341:00000000005400540000000000000000
#067321:00000000000000000054005400000000
#067390:00143424
#0673a0:00000000005400540000000000000000
#067380:00000000000000000054005400000000
#068350:0000000000130000
#068320:0000000000005323
#0693b0:0000001300005323
#069380:0000000053330000
#069321:0000001300005323
#069351:0000000053330000
#070381:0000000000130000
#0703b1:0000000000005323
#071321:0000001300005323
#071351:0000000053330000
#0713b0:0000001300005323
#071380:0000000053330000
#072320:0000000000130000
#072350:0000000000005323
#073320:0000001300005323
#073350:0000000053330000
#073381:0000001300005323
#0733b1:0000000053330000
#0743b1:0000000000130000
#074381:0000000000005323
#0753b1:0000001300005323
#075381:0000000053330000
#075350:0000001300005323
#075320:0000000053330000
