This file was generated by Ched 2.6.2.0.
#TITLE "normal"
#ARTIST ""
#DESIGNER ""
#DIFFICULTY 0
#PLAYLEVEL
#SONGID ""
#WAVE ""
#WAVEOFFSET 0
#JACKET ""
#REQUEST "ticks_per_beat 480"
#00002: 4
#BPM01: 190
#00008: 01
#TIL00: ""
#HISPEED 00
#MEASUREHS 00
#06018:26160000
#06012:00001616
#06212:26160000
#06218:00001616
#06210:41
#06412:00160016
#06418:2616
#06618:00160016
#06612:2616
#0681a:14141400
#06814:14141400
#07012:14141400
#07018:14141400
#0721a:1414
#07214:1414
#07212:00140000
#07218:00140000
#07412:1414
#07418:1414
#07414:00140000
#0741a:00140000
#07619:0000000000000014
#0001a:1414
#00114:1414
#00218:1414
#00312:1414
#0081a:14140000
#00814:00001414
#00810:41
#01012:14140000
#01018:00001414
#01218:14140000
#01212:00001414
#01414:14140000
#0141a:00001414
#0161a:1414
#01614:00140000
#01610:41
#0241a:1414
#02414:00140014
#02410:41
#02612:1414
#02618:00140014
#03614:14
#03618:0014
#0361f:11
#03818:1414
#03814:00140014
#03918:1414
#03914:00140000
#04018:14
#04014:0014
#04214:1414
#04218:00140014
#04314:1414
#04318:00140000
#04414:00140014
#0441a:2414
#0441f:21
#0521a:14
#05214:00140000
#05218:0014
#05212:00000014
#05318:14
#05312:00140000
#0531a:0014
#05314:00000014
#05712:0014
#05718:0014
#05819:1414
#05813:00140014
#0041a:14141400
#00514:14141400
#00618:14141400
#00712:14141400
#01712:1414
#01718:00140000
#02012:1414
#02018:00140000
#0211a:1414
#02114:00140000
#02818:1414
#02812:00140000
#02914:1414
#0291a:00140000
#03214:1414
#0321a:00140000
#03210:41
#03318:1414
#03312:00140000
#04812:1414
#04818:00140014
#04518:1414
#04512:00140014
#04510:41
#04914:1414
#0491a:00140014
#06117:00360000
#06116:0036
#06313:00360000
#06314:0036
#06517:00360000
#06713:00360000
#03752:0014
#03958:0014
#04354:0014
#0415a:0014
#07659:0000000000000014
#009380:14342400
#011340:14342400
#0133a0:14342400
#015320:14342400
#0183a0:14
#018380:0024
#019320:14
#019340:0024
#022320:14
#022340:0024
#0233a0:14
#023380:0024
#0253a0:14342400
#027320:14342400
#030380:14
#0303a0:0024
#031340:14
#031320:0024
#034340:14
#034320:0024
#035380:14
#0353a0:0024
#037340:14
#037320:00342400
#041380:14
#0413a0:00342400
#0463a0:1434
#046380:00340034
#0473a0:3424
#050320:1434
#050340:00340034
#051320:3424
#0543a0:1434
#054380:00340034
#0553a0:24
#0553a0:0014
#055380:00000034
#056380:24
#055341:0014
#055321:00000034
#056321:24
#056321:0014
#056341:00000034
#057341:24
#056380:0014
#0563a0:00000034
#0573a0:24
#059350:16362600
#061380:16
#061370:00360000
#061360:00003626
#063320:16
#063330:00360000
#063340:00003626
#065380:16
#065370:00360000
#065360:00003626
#067320:16
#067330:00360000
#067340:00003626
#0693a0:14
#069380:0024
#069341:14
#069321:0024
#071321:14
#071341:0024
#071380:14
#0713a0:0024
#0733a0:14
#073380:0024
#073341:14
#073321:0024
#075321:14
#075341:0000003400340024
#075380:14
#0753a0:0000003400340024
