This file was generated by Ched 2.6.2.0.
#TITLE ""
#ARTIST ""
#DESIGNER ""
#DIFFICULTY 0
#PLAYLEVEL
#SONGID ""
#WAVE ""
#WAVEOFFSET 0
#JACKET ""
#REQUEST "ticks_per_beat 480"
#00002: 4
#BPM01: 127
#00008: 01
#TIL00: ""
#HISPEED 00
#MEASUREHS 00
#00019:14
#00213:14
#00313:14
#00119:14
#0081a:14
#00810:41
#00914:14
#01018:14
#01112:14
#03218:14
#0321f:11
#03514:14
#04012:0016
#04018:26
#0401f:21
#03819:14
#03813:0014
#03919:14
#04118:16
#04112:0016
#04110:41
#06219:14
#05819:14
#05810:41
#05913:14
#06019:14
#03314:14
#03418:14
#00419:14
#00613:14
#00713:14
#00519:14
#0121a:14
#01314:14
#01418:14
#01512:14
#01510:41
#01619:14
#01713:14
#01819:14
#01913:14
#02019:14
#02113:14
#02219:14
#02313:14
#0241a:14
#0251a:14
#02614:14
#02714:14
#02710:41
#02818:14
#02918:14
#03012:14
#03112:14
#0361a:14
#03712:14
#04418:0016
#04412:26
#04512:16
#04518:0016
#04818:2616
#04912:1616
#05212:2616
#05210:41
#05318:1616
#05412:16
#05418:0016
#05512:16
#06113:14
#05618:26
#042380:16
#043380:26
#046320:16
#047320:26
#050380:16
#051380:26
#056380:16
#057380:26
#063330:14000024
