This file was generated by Ched 2.6.2.0.
#TITLE ""
#ARTIST ""
#DESIGNER ""
#DIFFICULTY 0
#PLAYLEVEL
#SONGID ""
#WAVE ""
#WAVEOFFSET 0
#JACKET ""
#REQUEST "ticks_per_beat 480"
#00002: 4
#BPM01: 127
#00008: 01
#TIL00: ""
#HISPEED 00
#MEASUREHS 00
#03116:1300001300000000
#03112:0000130000130000
#03115:0000000000000013
#0311b:1300001300000000
#03117:00130000
#03515:0000001300001300
#03512:0000000013000013
#03517:0013000013000000
#03514:00130000
#0351b:13000013
#03516:13
#03519:00130000
#03518:0000000000000013
#03712:1300000000000013
#03718:0000001300000000
#03715:00000000000000130013000000000000
#03719:0000130000130000
#0371b:13000000000000000013000000000000
#03713:0000000000130000
#03717:0000000000000013
#0371a:0013000000000000
#0391b:1300000000130013
#03917:00001313000000000000000000000000
#03912:13001313000000000000000000000000
#03916:00000013
#04112:1300000000130000
#0411b:00001300000000130000000013000000
#04115:00130000
#04118:00000000001300000000000000000000
#04116:00001300000000130000000013000000
#04114:0000000000000013
#04119:0000000000000013
#04117:13
#04110:41
#04212:13000000001300000000130000001300
#0421b:00001300000000130000000000000000
#04215:00000000130000130000000000000000
#04218:00000000001300000000000000000000
#04217:1300000000130013
#04312:1300000000130000
#04316:00001313000000000000000014000000
#0431b:00001313000000000000000000001300
#04313:0000000000000014
#04317:13
#04319:0000000000140000
#00714:0013131300000000
#00719:0013131314000000
#00713:0014
#00018:13001300000013000013000000000000
#00012:00000000000000001300000000000013
#00019:00000000000000000000000000130000
#00017:00000000000000000000000000000013
#00014:00000000000000000000000000130000
#00118:00001300000013000013000000000000
#00112:00000000130000000000001300000000
#00115:0000000013000013
#0011b:00000000000000000000001300000000
#0041b:13001300000013000000000000130013
#00412:00000000130000000000000000000013
#00415:0013
#00416:00000000000000000000001300000000
#00414:00000000000000000000000000130000
#00418:00000000000000000013000000000000
#0051b:00001300000013000000001300000000
#00518:0013
#00515:00000000130000000013000000000000
#00512:00000000000000000000001300001300
#00812:00000000001300000013001300000000
#00817:0000000000130000
#0081b:23000000000000000000000000130013
#00816:0000000000000013
#00815:00000013000000000000000000000000
#00818:00001300000000130000000000000000
#00810:41
#00912:13000000000000130000000000000013
#00918:00001300001300000000000000000000
#00915:00000013000000000000000000000000
#00919:0000000000000013
#00914:00000000000000000000000000130000
#0091b:00000013
#01218:00000013000000000000000000000000
#01212:00000000001300000000130000000000
#0121b:0013000000000013
#01217:00000000000000000013001300000000
#01216:23000000000000000000000000130013
#0121a:00000000000000130000000000000000
#01312:00001300000000130000000000130000
#01317:00000013000000000000000000000000
#01315:00000000001300000000000000000013
#01318:00000000000000130000000000001300
#0131b:13000000001300000000000013000000
#0161b:0013000000001300
#01615:00000000130000000013130000000000
#01618:00000000000013130000000000000000
#01612:23000013
#01914:1300001300001300
#01916:0013000013000013
#01917:0000130000130000
#01919:1300001300001300
#0191b:0013000013000013
#01912:0000130000130000
#02012:0013001300001300
#02018:00000013000000130000000000000000
#02015:0000130000130000
#0201b:00000000000000000013000013000000
#02115:00000013000000130000000000000000
#02118:0000130000130000
#0211b:0013001300001300
#02112:00000000000000000013000013000000
#02119:13
#0631b:1313000000130000
#06316:00141414
#06312:0000001300000013
#02412:00000000001300130000000000000000
#0241b:0013000000001300
#02416:00000013
#02418:00000013000013000000000000000000
#02415:00130000
#0251b:00000000000013130000000000000000
#02512:00001300000000000013130013000000
#02517:0000000000131300
#02518:0013130000000000
#02515:00000013000000000000000000000000
#02516:00000000000000130000000000000000
#02514:13
#0261b:0013000000000013
#02612:00130000
#0261a:0000001300000000
#02615:0000001300001300
#02616:0013000000000013
#02617:00130000
#02619:13
#02918:00001300000013130000000000000000
#02912:00000000130000130000000013000000
#02915:00000013000000000013130000000000
#0291b:0000130000131300
#02919:13
#01819:13130000
#0181b:0013000000000000
#01812:0000000000001313
#01817:0000001300000013
#01816:00000013000000000000000000000000
#01814:00000000001300000000000000000000
#02212:0000130000000013
#02217:0000000000000013
#0221b:0000001300000000
#02215:0013001300000000
#02218:00000013000000000000000013000000
#02214:13
#03018:0000001300001300
#03013:0000001300000000
#0301b:00130000
#03012:0013000000000013
#03017:0013000000000013
#03016:00130000
#03218:13
#0321b:0013001300001300
#03217:0000130000130000
#03216:00001300000000130000000013000000
#03212:00000000130000000013000000000000
#0321f:11
#03314:00130000
#0331b:13000000000013000013000000000000
#03315:00000000000000130000000000000000
#03316:00000000000000000013000000000000
#03312:13000000000000000000001300000000
#03317:00000000000000000000001300000000
#03313:0013000000000000
#03318:0000000000000013
#0361b:1300130000131300
#03615:0013001300130000
#03612:00000000130000130000000013000000
#03618:00000000000000130013000000000000
#0401b:0000000000000013
#04012:1414000014140000
#04016:2414240024142413
#0401a:00240024
#0401f:21
#0451b:1300000000130000
#04512:00001300000000130000000013000000
#04518:0013130000000000
#04515:00000000001300000000000000000000
#04517:00000000000000130000000013000000
#04519:0000000000000013
#04514:0000000000000013
#04516:13
#04412:0000240000002413
#04417:0000000000000013
#0441a:1414000014140000
#04416:2414240024142400
#04717:00001313000000000000000000001300
#04712:00001313000000000000000000001300
#0471b:1300000000130000
#04719:00000013
#04716:1300000000130000
#04714:00000013
#04912:00000000131300000000000000001300
#04916:00000000000000130000130000000000
#0491b:00000000000000130000130000000000
#04919:00000013
#04917:0000130000000013
#04914:00000013
#04915:0013000000000000
#0491a:0013000000000000
#04918:13
#04913:13
#05016:1300000000131300
#05018:0013000000000000
#05015:00000000131300000000000000000000
#05012:00000000000000130000000000001300
#0501b:13130013
#05017:00000000000000130000000000001300
#05112:1300000000130000
#05116:00001313000000000000000000001300
#0511b:00001313000000000000000000001300
#05114:00000013
#05117:1300000000130000
#05119:00000013
#05318:0013000000000000
#0531b:00000000131300000000130013000000
#05317:00000000000000130000000000001300
#05313:0013000000000000
#05316:0000130000131300
#05315:13
#05312:00000000000000130000000000001300
#0531a:13
#05412:0000000000131313
#0541b:0000130000000013
#05417:13
#05416:0000001300000000
#05419:0013000033000000
#05414:0033000013000000
#05519:1313000000000000
#05512:0000130000130013
#0551b:0000131300001300
#05516:00000000000013130000000013000000
#05514:1313000000000000
#05517:0000000000130000
#05217:0014000000140013
#05212:0014000000140013
#0521a:14241424
#05216:24242424
#05210:41
#05612:00140014001400140014001400140014
#05614:0014141414141414
#0561a:00140014001400140014001400140014
#05618:0014141414141414
#05613:24
#05619:24
#05715:00000013000000000000000000000000
#0571b:00000000001300000000000000000000
#05717:00000000000000130000000000000000
#05714:0000000000000013
#0571a:00000000000000000000000000140000
#05716:00000000001300000000000013000000
#05718:00001300000000000000000000000014
#05712:00000000000000130000000000000000
#05815:00001300000000000013000000001300
#0581b:00000013000000130000001300000000
#05812:13000000001300000000000000000013
#05818:00000000000000000000130000130000
#05817:00000000001300000000000000000000
#05816:00000000000000130000000000000000
#05810:41
#05918:0013000000000000
#05915:00000013000000000000000000000000
#05917:00000000001300000000000013000000
#05916:00000000000000130000000000000000
#0591b:13000000000000130000000000000000
#05912:00000000001300000000000000140000
#05919:0000000000000013
#05914:00000000000000000000000000000014
#06118:00001300000000000000000000140000
#06115:00000013000000000000000000000000
#0611b:00000000001300000000000000000000
#06117:00000000000000130000000000000000
#06112:13000000000000130000000013000000
#06114:0000000000000013
#0611a:00000000000000000000000000000014
#06116:00000000001300000000000000000000
#0141b:13000000001300000000130000000000
#01415:00000013000000000000000000000000
#01412:00001300000000130000000000001300
#01416:00000000000000000013001300000000
#01417:00000000000000000000000000130013
#02318:0000000000000013
#02312:0013001300000013
#0231b:13001313
#02315:00000013
#02316:1313
#02317:0013001300000000
#04618:00000000130000130000000000000000
#04615:00000000001300000000000000000000
#0461b:13000000001300000000130000001300
#04612:00001300000000130000000013000000
#04616:1300000000130013
#06216:13
#06218:00001300000000000000130000000013
#06215:00000013000000160000001300001300
#0621b:00000000001300000013000000000000
#06212:00000000001300000000000000130000
#0281b:00000000130013130000000000000000
#02812:00130013
#02817:00000013
#02815:0013001300000000
#02818:00000013000000000000000000000000
#03812:13000013
#03814:0013130000000013
#0381b:0000001300001300
#03819:0000000013130013
#01017:1300000000000013
#0101b:00000000001300000013001300000000
#01016:0000000000130000
#01012:00000000000000000000000000130013
#01018:00000013000000000000000000000000
#01015:00001300000000130000000000000000
#01714:13
#01712:0013000000001300
#01715:00000000130013130000000000000000
#0171b:00000013
#01718:00000013000000000013130000000000
#0481a:0014000000140000
#04812:14241424
#04816:2400240024002413
#0481b:0000000000000013
#04815:0014000000140000
#0601b:13000000001300000000000000000013
#06018:00001300000000000013000000001300
#06012:00000013000000130000001300000000
#06015:00000000000000000000130000130000
#06016:00000000001300000000000000000000
#06017:00000000000000130000000000000000
#03415:13
#03412:0013001300001300
#03416:0000130000130000
#03417:00001300000000130000000013000000
#0341b:00000000130000000013000000000000
#03419:0000000000000013
#02719:1300001300001300
#02717:0013000013000013
#02716:0000130000130000
#02714:1300001300001300
#02712:0013000013000013
#0271b:0000130000130000
#02710:41
#0031b:00000000130000000000001300001300
#00315:00001300000013000013000000000000
#00318:0013
#00312:00000000000000000000001300000000
#0111b:13000000000000130000000000000013
#01114:0000000000000013
#01119:00000000000000000000000000130000
#01112:00000013
#01115:00001300001300000000000000000000
#01118:00000013000000000000000000000000
#0151b:00001300000000130000000000130000
#01516:00000013000000000000000000000000
#01518:00000000001300000000000000000013
#01515:00000000000000130000000000001300
#01512:13000000001300000000000013000000
#01510:41
#00215:13001300000013000013000000000000
#0021b:00000000000000001300000000000013
#00214:00000000000000000000000000130000
#00216:00000000000000000000000000000013
#00219:00000000000000000000000000130000
#00612:13001300000013000000000000130013
#0061b:00000000130000000000000000000013
#00618:0013
#00617:00000000000000000000001300000000
#00619:00000000000000000000000000130000
#00615:00000000000000000013000000000000
#00753:0014
#00759:0014
#0195b:0000000000000013
#01956:0000000000000013
#0435b:00000053000000000000000000000000
#04356:00000053000000000000000000000000
#04757:00000053000000000000000000001300
#04752:00000053000000000000000000000000
#0475b:0000000000130000
#04754:00000013
#03952:00000053000000000000000000000000
#03957:00000053000000000000000000000000
#05156:00000053000000000000000000001300
#0515b:00000053000000000000000000000000
#05152:0000000000130000
#05159:00000013
#05557:0000000000630000
#0555b:00000023
#05654:0054545454545454
#05652:00540054005400540054005400540054
#0565a:00640064006400640064006400640064
#05658:0064646464646464
#05653:54
#05659:64
#06352:0000000000000013
#0635b:0000000000000013
#00952:00000000000000130000000000000000
#01358:00000000000000130000000000000000
#0165b:00000053
#0215b:00000053
#02452:00000000000000530000000000000000
#0245b:00000063
#02552:00000063
#02952:00000053
#0295b:00000053
#03157:0000000000130000
#03152:0000000000130000
#0315b:1300005300000000
#03156:13
#02358:0000000000000013
#02352:0063005300000013
#02356:6353
#0235b:6353
#02357:0063005300000000
#04056:0024000000240000
#0405a:00440044
#05057:00000000000000630000000000000000
#03558:0000000000000013
#03552:0000000000000013
#0335b:53
#0415b:00000000000000630000000000000000
#04552:00000000000000530000000000000000
#04252:0000000000630000
#04257:0000000000530000
#0465b:0000000000630000
#02852:00000053
#0285b:00000000000000630000000000000000
#03752:63
#0595b:13000000000000130000000000000000
#0485a:0064000000640000
#04852:00140014
#04856:24142414
#06152:13000000000000130000000000000000
#0325b:00000013
#03256:00000013
#05752:00000000000000130000000000000000
#03652:00000013
#0365b:00000013
#04956:00000000000000130000000000000000
#0495b:00000000000000130000000000000000
#05352:00000000000000130000000000000000
#05357:00000000000000130000000000000000
#02757:0000000000000013
#02752:0000000000000013
#01555:00000000000000130000000000000000
#01752:00000063
#02052:00000063
#00052:0053
#00058:00000000000000000053000000000000
#0025b:0063
#00255:00000000000000000063000000000000
#00458:00000000000000000053000000000000
#00655:00000000000000000063000000000000
#04456:0024000000240000
#04452:00340034
#05252:0054000000540000
#0525a:00140014
#05256:24142414
#0115b:00000000000000130000000000000000
#000350:0000132300000000
#000320:0013
#000360:00000000000000000000002300000000
#000381:00000000000000000013000000000000
#0003b1:00000000000000000000002300000000
#002381:0000132300000000
#0023b1:0013
#002371:00000000000000000000002300000000
#002350:00000000000000000013000000000000
#002320:00000000000000000000002300000000
#004380:00000000000000000013000000000000
#0043b0:00000000000000000000002300000000
#006350:00000000000000000013000000000000
#006320:00000000000000000000002300000000
#0163b0:00000013
#017370:23
#017320:00000013
#018360:23
#018320:00000000000000130000230000000000
#018371:0000000000132300
#020321:00000013
#021361:23
#0213b1:00000013
#022371:23
#0223b1:00000000000000130000230000000000
#022350:0000000000132300
#0233b0:13230000
#023370:0033000000000000
#023361:13230000
#023321:0033000000000000
#023321:0000001300230000
#023361:0033
#023370:0000001300230000
#0233b0:0033
#024320:00000000000000130000000000000000
#024360:0000000000230000
#0243b0:00000013
#025370:23
#025320:00000013
#026360:23
#026350:00000000000000130000230000000000
#026381:0000000000132300
#0283b1:00000000000000130000000000000000
#028371:0000000000230000
#028321:00000013
#029361:23
#029321:00000013
#030351:23
#0293b0:00000013
#030380:23
#030380:00000000000000130000230000000000
#030351:0000000000132300
#0313b1:0000001300000000
#031371:0000000000230000
#0333b1:13
#033371:00230000
#037321:13
#037361:00230000
#0383b1:13
#038371:0033230000000000
#038321:0000001300000000
#038361:0000000033230000
#039371:00000013000000000000000000000000
#0393b1:0023
#039320:00000013000000000000000000000000
#039360:0023
#040360:1434000000000000
#0403a0:00240000
#040360:0000000014340000
#0403a0:00000024
#0413b0:00000000000000130000000000000000
#041370:0000000000230000
#042320:0000000000130000
#042360:00000023
#042371:0000000000130000
#0423b1:00000023
#043361:00000013000000000000000000000000
#043321:0023
#0433b0:00000013000000000000000000000000
#043370:0023
#044360:1434000000000000
#044320:00240000
#044360:0000000014340000
#044320:00000024
#045320:00000000000000130000000000000000
#045360:0000000000230000
#0463b0:0000000000130000
#046370:00000023
#047320:00000013000000000000000000000000
#047360:0023
#047371:00000013000000000000000000000000
#0473b1:0023
#048361:14240000
#0483a1:0034000000000000
#048361:00001424
#0483a1:0000000000340000
#050371:00000000000000130000000000000000
#0503b1:0000000000230000
#051361:00000013000000000000000000000000
#051321:0023
#0513b0:00000013000000000000000000000000
#051370:0023
#052360:14240000
#052320:0034000000000000
#052360:00001424
#052320:0000000000340000
#054320:13
#054340:0033000000000000
#054360:00230000
#0543b0:0000001300000000
#054390:0033
#054370:0000000000332300
#0553b0:00000000000000130000000033000000
#055370:0000000000330023
#056330:14
#056320:00540054005400540054005400540054
#056340:0054545454545454
#057330:24
#056391:14
#0563a1:00540054005400540054005400540054
#056381:0054545454545454
#057391:24
#063321:1323000000000000
#0633b1:0000132300000000
#063321:0000000013230000
#0633b1:0000000000001323
