This file was generated by Ched 2.6.2.0.
#TITLE ""
#ARTIST ""
#DESIGNER ""
#DIFFICULTY 0
#PLAYLEVEL
#SONGID ""
#WAVE ""
#WAVEOFFSET 0
#JACKET ""
#REQUEST "ticks_per_beat 480"
#00002: 4
#BPM01: 127
#00008: 01
#TIL00: ""
#HISPEED 00
#MEASUREHS 00
#0311b:1300001300000013
#03112:00130000
#03115:1300001300000013
#03118:00130000
#03912:1400000000140000
#0391a:1400000000000014
#03916:00000014
#03914:0014000000000000
#03918:00000014000000000000000000000000
#0411b:13000000000000130000000000000000
#04118:0000130000000013
#04115:00000000001300000000000013000000
#04112:00001300000000130000130000000000
#04110:41
#04218:0000130000130000
#04215:00000000001300000000000013000000
#04212:00001300000000130000000000001300
#0421b:13000000000000130000000000000000
#00715:0013001300000000
#00718:00130000
#00719:0014
#00713:0014
#00018:1313001300000000
#00015:00130000
#00012:0013
#00017:00000000000000000000000000140000
#0001a:00000000000000000000000000000014
#00014:00000000000000000000001400000000
#00115:00001300000000000013000000001300
#00118:00131300
#00112:0000001300000000
#0011b:00000000000000000000001300000000
#0041b:13001300000013000000001300130013
#00415:00000000130000000000001300130013
#00412:0013
#00918:0013000000000000
#00915:00000013000000000000000000001300
#0091b:00000000001300000000000000001300
#06315:0013000013000000
#0631b:0000131300001313
#06312:0000131300001313
#06318:1300000000130000
#01812:0000001300000000
#01818:00000000130000130000000013000000
#0181b:0013000000000013
#01815:0000000000130013
#0221b:0013130000000013
#02215:00000013000000000000130000001300
#02218:00000000000000130000000013000000
#02212:0000001300000000
#03015:0000001300001300
#0301b:0013000000130000
#03018:00000000130000130000000000001300
#03012:0000000000000013
#05015:13000000001300000000000000001300
#05012:0013000000001300
#05018:00130013
#0501b:13
#05112:1300000000140014
#05118:13000013000000000000000000000000
#05115:0013000000000000
#0511a:0000000000140000
#05116:00000014
#03512:00130000
#03518:1313
#03515:0013001300000013
#0351b:00000013
#0361b:13000000000000000013000013000000
#03618:00001300000000130000000000000000
#03612:0000001300001300
#03615:0000130000130000
#02315:0000000000000013
#0231b:0000000000000013
#02312:14141413
#02318:14141413
#02314:0014001400000000
#0231a:0014001400000000
#0491b:00000000000000130000000013000000
#04912:13000000000000130000130000000000
#04918:0000130000000013
#04915:00001300001300000000000013000000
#0081b:00000000001300000000000000000000
#00815:00000013000000000000000000003333
#00818:0013000000330000
#00812:13000000000000130000000000000000
#00810:41
#0531b:13000000000000130000130013000000
#05318:00001300001300000000000000001300
#05315:0000130000131300
#05312:00000000000000130000000000001300
#01618:00000000000013000013000000000000
#01615:00000000000000130000130000000000
#0161b:0013000000001300
#01612:13130000
#0191b:1313000000000000
#01915:1313001300130000
#01918:0000130013001313
#01912:0000000000001313
#0201b:0013130000001300
#02015:00000013000000000000000000000000
#02012:0000001300000000
#02018:00000000000000130000000000000000
#02415:00001300000000130000000013000000
#02418:00130000
#0241b:0000001300130000
#02412:0000000000130000
#02618:0000130000130013
#02615:00001300000000130000000013000000
#0261b:0000001300000000
#02612:0000000000000013
#02818:00130013
#0281b:00001300000000130000000000000000
#02815:0000001300000000
#0321b:13000013
#03212:0013130000001300
#03218:0013001300130000
#03215:00000000000000130013000000000000
#0321f:11
#03318:1300001300000013
#03315:00000000000000130000000000000000
#03312:13000000000000000000001300001300
#0331b:00000000000000000013000000000000
#0341b:0013000000001313
#03415:1313001300130000
#03418:00000000130000130013000000000000
#03412:00000013
#0371b:0000001300000013
#03715:00001300000000130000000000000000
#03712:13000000000000000013000000001300
#03718:0000130000130000
#04315:0013000000000000
#04318:00000013000000000000000000000000
#04312:1300000000000014
#0431a:0000000000140000
#04316:00000014
#05412:1400000000000013
#0541a:0000001400000000
#05415:0034000000000000
#05417:0000000034340000
#05515:1300001300000000
#05518:00001300000000130000000000000000
#05513:0000000000141414
#05519:0000000000141414
#0551b:00130000
#05614:00160016001600160016001600160016
#05616:0016161616161616
#05615:26
#05715:0013000000000000
#05718:00000013000000000000000000000000
#05712:00000000001300000000000000001300
#0571b:00000000000000130000000000001300
#05915:0013000000000000
#05918:00000013000000000000000000000000
#0591b:00000000001300000000000000001300
#05912:00000000000000130000000000001300
#05812:00000000001300000000000000000000
#05818:00000013000000130000000000003333
#05815:1313000000330000
#0581b:13
#05810:41
#06218:13000013000000000000000000001300
#06212:13000000001300000000000000130013
#0621b:00000000001300000013001300000000
#06215:00001300000000130000130000000000
#02715:1300130013001313
#0271b:1300000000001313
#02718:0013001300130000
#02712:0013000000000000
#02710:41
#0381b:1300001300000000
#03818:0013000000130000
#03815:00131300
#0381a:00000014
#03816:0000000000000014
#03812:1300001300001400
#00318:00001300000000000013000000000000
#00315:00131300
#0031b:0000001300000013
#00312:00000000000000000000001300000000
#00512:0013001300000013
#00518:00131300
#00515:00000000000000000013000000000000
#0051b:00000000000000000000001300000000
#00612:13001300000013000000001300130013
#00618:00000000130000000000001300130013
#0061b:0013
#01715:00000000000013000013000000000000
#01718:00000000000000130000130000000000
#01712:0013000000001300
#0171b:00130000
#02518:00001300000000130000000013000000
#02515:0000130000130000
#02512:0000001300000000
#0251b:00000000000000000013000000000000
#02915:0000130000131300
#02912:00001300000000130000000000000000
#02918:0000001300000000
#0291b:00000000000000000013000000000000
#04512:13000000000000130000000000000000
#04515:0000130000000013
#04518:00000000001300000000000013000000
#0451b:00001300000000130000130000000000
#04615:0000130000130000
#04618:00000000001300000000000013000000
#0461b:00001300000000130000000000001300
#04612:13000000000000130000000000000000
#0441b:0000000000000013
#04415:0014000000140000
#04412:2424
#04718:0013000000000000
#0471b:13
#04715:00000013000000000000000000000000
#0471a:0000000000140014
#04712:0000000000140000
#04716:00000014
#04012:0000000000000013
#04017:0014000000140000
#0401f:21
#0401a:2424
#00215:13001300000013000000000000140000
#00218:00000000130000000000001400000000
#0021b:0013
#00212:00000000000000000000000000000014
#02112:0013130000001300
#02118:00000013000000000000000000000000
#0211b:0000001300130000
#02115:00000000000000130013000000000000
#04812:0014000000140000
#04817:0014000000140000
#0481b:0000000000000013
#04815:2424
#0481a:2424
#0521a:0014000000140000
#05215:0014000000140000
#05212:2400000024000013
#05217:2424
#05210:41
#01115:0013000000000000
#01118:00000013000000000000000000001300
#01112:00000000001300000000000000001300
#01012:00000000001300000000000000000000
#01018:00000013000000000000000000003333
#01015:0013000000330000
#0101b:13000000000000130000000000000000
#01318:00001300001300000000000000001300
#01312:00000013000000000000000000001300
#0121b:00000000001300000000330000000000
#01215:13000013000000000000000000000000
#01218:0013000000000000
#01212:00000000000000130000000000003333
#01515:00001300001300000000000000001300
#0151b:00000013000000000000000000001300
#01510:41
#01412:00000000001300000000330000000000
#01418:13000013000000000000000000000000
#01415:0013000000000000
#0141b:00000000000000130000000000003333
#06118:0013000000000000
#06115:00000013000000000000000000000000
#06112:00000000001300000000000000001300
#0611b:00000000000000130000000000001300
#0601b:00000000001300000000000000000000
#06015:00000013000000130000000000003333
#06018:1313000000330000
#06012:13
#00753:0014
#00759:0014
#05158:00000063000000000000000000000000
#03158:0000000000130000
#0315b:1300005300000000
#03155:1300005300000000
#03152:0000000000130000
#02352:54545400
#02354:0054005400000000
#02355:0000000000000013
#0235b:0000000000000013
#02358:54545400
#0235a:0054005400000000
#0165b:00000063
#0205b:00000053
#02058:00000000000000530000000000000000
#02455:00000063
#02858:00000063
#0285b:00000000000000530000000000000000
#03358:53
#03352:53
#04358:00000063000000000000000000000000
#05654:00560056005600560056005600560056
#05656:0056565656565656
#05655:56
#0325b:00000013
#03252:00000013
#03652:00000013
#0365b:00000013
#01952:0000000000000013
#01958:0000000000000013
#02755:0000000000000013
#0275b:0000000000000013
#01752:00000053
#02558:00000063
#02955:00000053
#04755:00000053000000000000000000000000
#05352:00000000000000130000000000000000
#0535b:00000000000000130000000000000000
#05452:54
#0545a:0000005400000000
#02152:00000063
#03958:00000054000000000000000000000000
#04855:54445444
#04852:0024000000240000
#04857:0024000000240000
#0485a:54445444
#0575b:00000000000000530000000000000000
#04455:0024000000240000
#04452:64346434
#04057:0024000000240000
#0405a:54445444
#0525a:0024000000240000
#05255:0024000000240000
#05257:64346434
#05252:64346434
#05952:00000000000000630000000000000000
#0615b:00000000000000530000000000000000
#03555:0000000000000013
#0635b:0000000000000013
#06352:0000000000000013
#008380:00000000000000000013330000000000
#0083b0:00000000000000000000002300000000
#008350:00000000000000000000000000133333
#009320:23
#009320:00000000000000130000000023000000
#010350:00000000000000000013330000000000
#010320:00000000000000000000002300000000
#010380:00000000000000000000000000133333
#0113b0:23
#0113b0:00000000000000130000000023000000
#0123b0:00000000000000000013330000000000
#012380:00000000000000000000002300000000
#012320:00000000000000000000000000133333
#013350:23
#013350:00000000000000130000000023000000
#014320:00000000000000000013330000000000
#014350:00000000000000000000002300000000
#0143b0:00000000000000000000000000133333
#015380:23
#015380:00000000000000130000000023000000
#0163b0:00000013
#017380:23
#017320:00000013
#018350:23
#020380:00000000000000130000000000000000
#0203b0:0000000000230000
#0203b0:00000013
#021380:23
#021320:00000013
#022350:23
#023320:14343400
#023340:0034003400240000
#023381:14343400
#0233a1:0034003400240000
#024351:00000013
#025321:23
#025381:00000013
#0263b1:23
#0283b1:00000000000000130000000000000000
#028381:0000000000230000
#028381:00000013
#0293b1:23
#029351:00000013
#030321:23
#0313b1:0000001300000000
#031381:0000000000230000
#031350:0000001300000000
#031320:0000000000230000
#033380:13
#0333b0:00230000
#033321:13
#033351:00230000
#039381:00000014000000000000000000000000
#0393a1:0024
#0403a1:14240000
#040371:0034000000000000
#0403a1:00001424
#040371:0000000000340000
#043381:00000013000000000000000000000000
#0433b1:0023
#044321:14240000
#044351:0034000000000000
#044321:00001424
#044351:0000000000340000
#047351:00000013000000000000000000000000
#047321:0023
#048351:14240000
#048321:0034000000000000
#0483a0:14240000
#048370:0034000000000000
#048350:00001424
#048320:0000000000340000
#0483a1:00001424
#048371:0000000000340000
#0503b1:00000000000000130000230000000000
#050350:00000000000000130000230000000000
#051380:00000013000000000000000000000000
#0513b0:0000002300000000
#052370:14240000
#0523a0:0034000000000000
#052321:14240000
#052351:0034000000000000
#052371:00001424
#0523a1:0000000000340000
#052320:00001424
#052350:0000000000340000
#054320:14
#054350:0034240000000000
#0543a0:0000001400000000
#054370:0000000034342400
#056350:16
#056340:00560056005600560056005600560056
#056360:0056565656565656
#057350:26
#0573b0:00000000000000130000000000000000
#057380:00000023
#058350:00000000000000000013330000000000
#058320:00000000000000000000002300000000
#058380:00000000000000000000000000133333
#0593b0:23
#059320:00000000000000130000000000000000
#059350:00000023
#060380:00000000000000000013330000000000
#0603b0:00000000000000000000002300000000
#060350:00000000000000000000000000133333
#061320:23
#0613b0:00000000000000130000000000000000
#061380:00000023
