This file was generated by Ched 2.6.2.0.
#TITLE ""
#ARTIST ""
#DESIGNER ""
#DIFFICULTY 0
#PLAYLEVEL
#SONGID ""
#WAVE ""
#WAVEOFFSET 0
#JACKET ""
#REQUEST "ticks_per_beat 480"
#00002: 4
#BPM01: 127
#00008: 01
#TIL00: ""
#HISPEED 00
#MEASUREHS 00
#03112:1300001300000013
#0311b:0000130013000013
#03117:1300001300000000
#03116:00131300
#03515:00000013
#03512:1300000013130013
#03518:00000000000000000000001300130000
#0351b:0000130000130013
#03516:1414141414000000
#0411a:12
#0411c:00001200121200000000000000000000
#04114:12
#04112:00001200121200000000001300000000
#04116:00000013
#04117:0000000000000013
#0411b:00000000000000000000000000130000
#04113:00000000000000000000000000000013
#04110:41
#0421b:13001300130000130000130000001300
#04216:00001300130000000000130000000012
#04212:13000000001300130000000000000000
#04217:00000000001300000000000000000000
#04319:13000000000000000000000000130000
#04317:00001313000000000000000000000013
#04312:00000013000000000000000000001500
#04314:00120000000000000000000015000000
#0431b:0000000000000000000000130000000000000000000013000000000000000000
#04316:0000000000000000000000130000000000000000150000000000000000000000
#00714:0013000000000000
#00719:0013000000000000
#00716:0000141400000000
#0071b:0013
#00712:0013
#0001c:12001200120012001200000000000012
#00015:00000000000000000012000000000000
#00014:00001200000000000000001200000000
#00013:00000000000000000000000000120000
#00012:12000000000000000000000000000012
#0001a:00000000000000000000000000120000
#00017:0012
#0011c:00001200000000001212000000000000
#00119:00120000
#00112:00000000000012000000001200001200
#00117:00000000000000001200001200000000
#00115:00120000
#0041b:13001300130013001300000000000013
#00414:00000000000000000013000000130000
#00412:00000000000000000000001300000013
#00419:00000000000000000000000000130000
#00416:0013
#0051b:00001300130000000000001300000000
#00512:0000001300000013
#00518:00000000000000000013000000000000
#00516:00001300130000000000001300000000
#00515:0013
#00915:00000000000013000000000000120012
#00912:13000013000000130000000013000000
#00919:0000000000000012
#0091b:13000000130000000000001313000000
#00918:00000000001300000000000000000000
#01312:00001300000000130000000014000014
#01318:13000013000000000000000000000000
#0131a:00000000000000000000001400000000
#01316:00000000000014000000000000141400
#01315:00130000
#0131b:00000000001300000000000000000000
#01612:2413000000001300
#0161b:0013001300000000
#01617:00000000000000130000000000000000
#01614:0000000000130000
#01618:00000000130000000013000000000000
#01616:00000013
#01615:00000013000000000000000000000000
#02116:00000013000000000000130000000000
#0211a:00130000
#0211b:00001300000000130000000013000000
#02112:0013000000000000
#02117:13000013
#06316:00130000140000001400000014000000
#0631b:1313001300000013
#06312:0000000000130000
#03312:00001300000000000013000000000000
#03316:13000000000000000000001300000000
#0331b:13000000000000130000000000001300
#03318:0000001300000000
#03315:00000000000000130000000000000000
#03317:0013000000000000
#0471b:13001313000000000000000000130000
#04718:00000000000000000000160000000013
#04715:00000016
#04712:1300000000000000000000130000000000000000000013000000000016000000
#04716:00001313000000000000000000000000
#04717:0000000000000000000000130000000000000000000000000000000000000000
#04917:13000000001300000000000000000000
#04916:00001300000000130000000000001300
#04912:0000000000130000
#0491b:00000000000000130000000000000000
#04914:00000013
#0481b:0000000000000013
#04816:0000000000000013
#04815:0015000000150000
#04812:26000013000013002600001300000000
#04817:0000001300000000
#04818:00260026
#05512:13000000130013130000000013000000
#05517:13000000000013130000000013000000
#0551b:0013130000130000
#05516:0013000000000013
#02414:00000000001300000000000000000000
#02416:00000013000000000000130000000000
#02412:00000000000000130000000013000000
#0241b:00000000000000000013000013000000
#02417:00000000000013130000000000000000
#02816:00130013
#02812:0013000000001300
#02819:00000033000000000000000000000000
#0141a:14
#0141b:00001313000000130000000000000013
#01417:00000000001300000000000000000000
#01416:00000013000000130000140000001400
#01412:00000000000000000000000000000013
#03416:1300000000000014
#03414:0013000000000000
#03412:00000000130000000013000000000000
#03413:00000000000000000000000000130000
#0341b:13000000000000130000000013000000
#03417:0013000000000000
#0341a:00000000000000000000000000000013
#03715:00000000000000000013000000000013
#03718:0000001300000013
#03716:13000013
#0371b:13000000000000000013000013000000
#0371c:00000000000000120000000000000000
#03712:0013001300120000
#03717:0013000000000000
#04016:2400000024000014
#04012:00130000000000000013000013000000
#04015:00000013130000000000001300000000
#04018:0014000000140000
#0401f:21
#0401a:00240024
#05117:00001313000000000000000000000000
#05112:13001313000000000000160000130000
#0511b:1300000000000000000000130000000000000000000013000000000000000000
#05116:0000000000000000000000130000000000000000000000000000000000000000
#05115:00000000000000000000000016000013
#05118:0000000000000016
#0571b:00001300001300130000000000000000
#05718:00000013000000000000000000000000
#05716:0000001400001414
#05712:0013000000000000
#05715:00130000
#06018:00000000000000000016000000001400
#06014:0000000000140000
#06012:00001300001300000000001200160000
#0601c:00000000000000000000000000000012
#0601b:0013000000000000
#06015:00000016000000000000000000000000
#06017:00000000001300000000000000000000
#06016:14000000000000130000000000000000
#05812:00000013001300000016000000000016
#05815:0016000000160016
#0581b:00000013000000130000000000000000
#05817:00000000001300000000000000000000
#05816:14
#05818:00000000000000000000001600160000
#05810:41
#06112:13000000000000000000001300000013
#06115:00000016001600160000000000000000
#06116:00000013
#06117:0000000000000013
#0611b:00000000000000000000000000130000
#02216:13000013000000000000000000000000
#02212:00000000000000130000000000000000
#0221b:0000000000000000120000000000000000000000000000001300000013330033
#0221a:0012000000000000
#02214:00000000001300000000000000000000
#0221c:0000001200000000
#02218:00000000000000000000000000000013
#04515:13130000
#04512:00001300001300130000000000130000
#0451b:13000000130000000000001300000000
#04518:00000000001300000000000000000000
#04517:0013000000001300
#04516:00000000000000130000000000001300
#0451a:00000000000000000000000000000013
#04412:0000240000002413
#04418:00000013130000000000001300000013
#0441b:00130000000000000013000013000000
#04414:0014000000140000
#04416:2424
#05319:00000013
#0531b:0000000000000013
#05317:00001300000000130000130000000000
#05312:00000000000000130000130000000000
#05314:00000013
#05316:13000000001300000000000000001300
#05412:1917151300001913
#0541b:1300000000001313
#05419:0013000000150000
#05417:00131700
#05415:0000001900000000
#05414:0013
#05416:0000000000130000
#01717:13000013
#0171b:0013000000001300
#01712:0013001300000000
#01716:00000000000000130000000000000000
#01719:0000000000130000
#01715:00000000130000000013000000000000
#01718:00000013000000000000000000000000
#00812:23000000001300000013000000000000
#00815:00000000000000000000130000000013
#00818:00000012000000000000001300001300
#00816:0012000000000000
#0081b:23000000001300000000000000000000
#00817:00000000000000130000000000000000
#00810:41
#03812:1313001300131300
#0381b:13131313
#03817:0000001300000000
#03815:0000000000000012
#03819:0000000000000012
#03912:1300000014001434343434003434343400000000000013000000000000000000
#0391b:13
#03916:00000000000000000000000000000013
#03917:00000015
#03915:0000000000150000
#03914:00000000000000000000000000130000
#03919:0000000000000015
#03918:0000000000000000000000140000000000000000000000000000000000000000
#01212:23001313000000130000000000000013
#01216:00000000001300000000140000001400
#01217:00000013000000130000000000000000
#0121b:23000000000000000000000000000013
#05012:13000000000000130000000000000000
#05016:0013000000130000
#0501b:00001300001300000000000000000000
#05017:00000000000000130000000013000000
#05018:0000130000000013
#05015:00000000000000000000000000000013
#0251b:13000013
#02512:00000000000000000013000013000000
#02517:00000013000000000000130000000000
#02514:00130000
#02516:00000000000000130000000000000000
#02612:13000000000000130000000000000000
#02616:00000013000000000000130000001300
#0261c:0012000000000000
#0261a:00120000
#02614:00000000001300000000000000000000
#02618:0000001200000000
#0261b:0000000000130013
#0321f:11
#03217:13
#03219:0013000000000000
#0321b:00000000130000000013000000000000
#03212:13000000000000130000000013000000
#03216:0013000000001300
#03215:0000000000000013
#03218:00000000000000000000000000000013
#00312:00001200000000001212000000001300
#00317:00000000000000001200001200001300
#00315:00120000
#0031c:00000000000012000000001200000000
#00319:00120000
#01817:00000013000000000000130000001300
#01812:00001200000000130000130000001300
#01814:00120000
#01819:00000000001300000000000000000000
#01816:1300001200000000
#0181b:00000000000000130000000000000000
#01914:1313
#01916:0013000000000000
#01919:00131300
#01912:0000000000130013
#01915:00000000000000000000000000130000
#0191b:00000000000000000000001300001300
#01917:0000001300000000
#01918:00000013
#02312:1333003300000000133300330000000013330033000000001300000000000000
#02315:00130000001300000013000000130000
#0231b:0000000013330033000000001333003300000000133300330000000013000000
#02318:00000013000000130000001300000000
#0291b:0013000000001300
#02917:00130013
#02914:00000033000000000000000000000000
#03615:0000001300000013
#03612:13000000000000120013000013000000
#0361c:0000000000120000
#03618:00000000000000000013000000000013
#03617:13000013
#0361b:0013001300000000
#03616:0013000000000000
#04617:0013130000130000
#04612:13001300130000130000130000000000
#0461b:13000000001300130000000000000000
#04616:00000000001300000000000000000000
#04615:0000000000000013
#04618:00000000000000000000000000000013
#05212:0000260000002613
#05217:0000000000000013
#05216:0015001300150000
#0521b:00000013000013000000001300000000
#05218:2626
#05210:41
#06216:13
#06212:00000013001300000016000000000012
#06215:0016000000000000
#0621b:00000013000000130000000000000000
#06217:00000000001300000000000000000000
#06218:00000000000000000000140000160000
#0621c:00000000000000000000001200000000
#06214:0000000000000014
#00212:12001200120012001200000000000012
#00219:00000000000000000012000000000000
#0021a:00001200000000000000001200000000
#0021b:00000000000000000000000000120000
#0021c:12000000000000000000000000000012
#00214:00000000000000000000000000120000
#00217:0012
#00612:13001300130013001300000000000013
#00619:00000000000000000013000000130000
#0061b:00000000000000000000001300000013
#00614:00000000000000000000000000130000
#00617:0013
#0101b:13000000001300000013000000000000
#01012:13000000001300000000000000000000
#01018:00001200000000000000130000000013
#01016:00000012000000130000000000000000
#01015:00000000000000000000001300001300
#02017:00000013000000000000130000000000
#02013:00130000
#02012:00001300000000130000000013000000
#0201b:0013000000000000
#02016:00000013
#0301b:00000000000000130000000000001300
#03012:0000001200001300
#03017:00000013000000000000000000000000
#03014:0012000000000000
#03013:00120000
#03019:00000000001300000000000000000000
#03016:0000000000000013
#0591b:1313000000000000
#05912:00001300001300130000000000000000
#05915:00000013000000000000000000000000
#05916:0000001400001414
#05918:00130000
#01118:0000001300000000
#0111b:13000013000000130000000013000000
#01119:00000000000000000000000000120012
#01115:00000000001300000000000000001200
#01112:13000000130000000000001313000000
#0151b:00001300000000130000000000000000
#01515:13000013000000000000000000000000
#01512:00000000001300000000001400000000
#0151a:00000000000000000000000014000014
#01516:00000000000014000000000000141400
#01518:00130000
#01510:41
#02719:1313
#02717:0013000000000000
#02714:00131300
#0271b:0000000000130013
#02718:00000000000000000000000000130000
#02712:00000000000000000000001300001300
#02716:0000001300000000
#02715:00000013
#02710:41
#05612:24
#0561a:24
#04352:00000063000000000000000000003500
#04357:00000063000000000000000000000000
#0435b:0000000000000000000000230000000000000000000000000000000000000000
#04356:0000000000000000000000230000000000000000350000000000000000000000
#04354:00000035
#0635b:0000000000000013
#06352:0000000000000013
#03152:1300006300130000
#03156:0063
#03157:1300000000130000
#0315b:0063
#0355b:0000000000000013
#03552:0000000000000013
#03556:14141400
#0425b:0000000000530000
#04256:0000000000530000
#04252:00000000000000530000000000000000
#01656:00000053
#02157:00000063
#04756:00000053000000000000000000000000
#0475b:00000053000000000000000000000000
#04758:0000000000160000
#04755:00000016
#04752:0000000000000000000000230000000000000000000000000000000016000000
#04757:0000000000000000000000230000000000000000000000000000000000000000
#04952:13000000001300000000000000000000
#04956:00000000000000130000000000000000
#0495b:00001300000000630000000000000000
#04957:53000000001300000000000000000000
#04856:0000000000000063
#04858:00460046
#05157:00000063000000000000000000000000
#05152:00000063000000000000160000000000
#0515b:0000000000000000000000530000000000000000000000000000000000000000
#05156:0000000000000000000000530000000000000000000000000000000000000000
#05155:00000016
#05158:0000000000000016
#0555b:0000000000630000
#05557:00000023
#05552:00000000000000530000000000000000
#0075b:0043
#00752:0033
#05856:14
#05852:00000000005300000016000000000000
#05858:00000000000000000000000000160000
#0385b:5363
#03852:0053006300000000
#03856:0013000000130000
#03857:00131300
#05052:00000000000000630000000000000000
#05056:0000000000530000
#05057:00000000000000530000000000000000
#02452:00000063
#02856:00000053
#02852:00000053
#0255b:00000053
#0005c:0052
#0095b:63
#00952:00000000000000330000000000000000
#0185b:00000000000000530000000000000000
#01857:0000000000530000
#01852:0000000000530000
#01954:33
#01959:00430000
#0195b:0000000000000043
#01952:0000003300530033
#0225b:0000000000000063
#02258:00000000000000000000000000000023
#02352:6333633363336333
#02355:00230000002300000023000000230000
#0235b:4363436343634343
#02358:00000023000000230000002300000000
#02652:00000000000000630000000000000000
#02656:0000000000630000
#0265b:0000000000630000
#0295b:00000063
#02957:00000063
#03952:00000054000000000000000000000000
#03955:0000000000450000
#03959:0000000000000045
#03958:0000000000000000000000240000000000000000000000000000000000000000
#03957:00000045
#04552:00000000000000530000000000000000
#04556:00000000000000630000000000000000
#06058:00000000000000000016000000000000
#06052:00000000000000000000000000160000
#06057:00000000005300000000000000000000
#06056:14
#01757:00000063
#03252:53
#03256:0023000000000000
#0345b:63
#03457:0023000000000000
#03357:0023000000000000
#0335b:53
#03352:0023000000000000
#03356:53
#0405a:00440044
#04055:00530000
#04458:00630000
#04452:00340034
#04652:0000000000630000
#0465b:00000000000000630000000000000000
#04657:0000000000630000
#05356:63000000001300000000000000000000
#0535b:13000000001300000000000000000000
#05352:0013000000000000
#05357:00000000000000130000000000000000
#05257:0000000000000053
#05252:00360036
#05452:3937350000003900
#05455:0000004900000000
#05457:0047
#05459:0000000000450000
#0575b:00000000000000430000000000000000
#06256:13
#06252:00000000005300000016000000000000
#06258:00000000000000000000000000160000
#06155:00000000000000160000000000000000
#00252:0062
#0045b:0053
#00652:0063
#01257:00000063000000000000000000000000
#01352:00000000000000330000000000000000
#01358:53
#02056:00000053
#03652:63000013
#03657:63000013
#0365b:0053000000000000
#03656:0053000000000000
#05952:00000000000000330000000000000000
#00858:00000000000000000000005300000000
#0115b:00000000000000430000000000000000
#01152:53
#01055:00000000000000000000006300000000
#01555:63
#0155b:00000000000000430000000000000000
#01456:00000053000000000000000000000000
#02759:43
#02754:00330000
#0275b:0000004300630043
#02752:0000000000000033
#0375b:53
#03756:53
#03752:0063000000000000
#03757:0063000000000000
#000360:0000122200000000
#0003c0:0012
#000380:00000000000000000000002200000000
#002380:0000122200000000
#002320:0012
#002360:00000000000000000000002200000000
#004370:13
#004320:0023000000000000
#004370:00130000
#004320:0000002300000000
#0043b0:0013
#004370:00000000000000000000002300000000
#006360:13
#0063b0:0023000000000000
#006360:00130000
#0063b0:0000002300000000
#006320:0013
#006360:00000000000000000000002300000000
#0083b0:00000000000000000013230000000000
#008380:00000000000000000000001300000000
#0083b0:00000000000000000000000000230000
#008321:00000000000000000000000000132300
#0093b1:13
#009381:0023000000000000
#010321:00000000000000000013230000000000
#010351:00000000000000000000001300000000
#010321:00000000000000000000000000230000
#0103b0:00000000000000000000000000132300
#011320:13
#011350:0023000000000000
#012370:00000013000000000000000000000000
#0123b0:00000000002300000000000000000000
#012320:00000000000000000013002300000000
#0123b1:00000000000000000000001300230000
#013381:13
#0133b1:0023000000000000
#014361:00000013000000000000000000000000
#014321:00000000002300000000000000000000
#0143b1:00000000000000000013002300000000
#014320:00000000000000000000001300230000
#015350:13
#015320:0023000000000000
#016360:00000013
#0173b0:23
#017370:00000013
#018320:23
#0183b0:00000000000000130000000023000000
#018370:0000000000530000
#018321:0000000000130000
#018361:00000023
#019391:13
#0193b1:0023000000000000
#019341:00130000
#019321:0000002300000000
#019321:0000000000130000
#019351:00000023
#020361:00000000000013230000000000000000
#0203b1:00000000000000000013230000000000
#020361:00000013
#0213b1:23
#021371:00000000000013230000000000000000
#021321:00000000000000000013230000000000
#021371:00000013
#022321:23
#0223b1:00000000000000130000000000000000
#022371:0000000000230000
#022320:0000000000130000
#022360:00000023
#0223b0:0000000000000000000000000000000000000000000000000000000013330033
#022380:00000000000000000000000000000033
#0233b0:23
#023321:1333003323000000000000000000000000000000000000000000000000000000
#023351:00330000000000000000000000000000
#0233b0:0000000013330033230000000000000000000000000000000000000000000000
#023380:00000033000000000000000000000000
#023321:0000000000000000133300332300000000000000000000000000000000000000
#023351:00000000003300000000000000000000
#0233b0:0000000000000000000000001333003323000000000000000000000000000000
#023380:00000000000000330000000000000000
#023321:0000000000000000000000000000000013330033230000000000000000000000
#023351:00000000000000000033000000000000
#0233b0:0000000000000000000000000000000000000000133300332300000000000000
#023380:00000000000000000000003300000000
#023321:0000000000001323
#023351:00000000000000000000000000530000
#0243b1:00001323000000000000000000000000
#024391:00000000132300000000000000000000
#024321:00000013
#025371:23
#025321:00001323000000000000000000000000
#0253b1:00000000000013230000000000000000
#0253b1:00000013
#026361:23
#026321:00000000000000130000000023000000
#026361:0000000000530000
#0263b0:0000000000130000
#026370:00000023
#027340:13
#027320:0023000000000000
#027390:00130000
#0273b0:0000002300000000
#0273b0:0000000000130000
#027380:00000023
#028370:0013000000000000
#028390:00000033000000000000000000000000
#0283b0:00230000
#0283b0:0000001300230000
#028380:00000000000000330033000000000000
#028351:0000001300000000
#028321:00000000000000230000000000000000
#028321:00000000000000000013000000000000
#028351:0000000000230000
#028361:00000013
#0293b1:23
#028320:00000013
#029370:23
#029360:0013000000000000
#029340:00000033000000000000000000000000
#029320:00230000
#029320:0000001300230000
#029350:00000000000000330033000000000000
#029381:0000001300000000
#0293b1:00000000000000230000000000000000
#0293b1:00000000000000000013000000000000
#029381:0000000000230000
#029371:00000013
#030321:23
#0293b0:00000013
#030360:23
#030320:00000000000000130000000000000000
#030360:0000000000230000
#0303b1:0000000000130000
#030371:00000023
#031321:0000001300230000
#031361:0053
#0313b0:0013
#031370:0000000000230000
#032320:13230000
#032360:0053000000000000
#032360:00000000000014240000000000000000
#032360:00000000000000000014240000000000
#0333b0:13230000
#033370:0053000000000000
#033361:13230000
#033321:0053000000000000
#033371:00000000000000000013000000000000
#0333b1:00000000000000000000002300000000
#0343b1:13230000
#034371:0053000000000000
#034361:00000000000014240000000000000000
#034361:00000000000000000014240000000000
#036321:13230000
#036361:0033000000000000
#036370:13230000
#0363b0:0033000000000000
#0373b0:13230000
#037370:0033000000000000
#037361:13230000
#037321:0033000000000000
#0383b1:13
#038361:0023000000000000
#038320:0013000000000000
#038370:00230000
#038320:0000001300000000
#038370:0023
#0383b1:0013
#038361:0000000000230000
#039321:0000000000001434343434003434343424000000000000000000000000000000
#039381:0000000000000000000000340000000000000000000000000000000000000000
#040351:00130000
#040321:0023
#0413c1:00000000000000120000220000000000
#041320:00000000000000120000220000000000
#042320:00000000000000130000000023000000
#042360:0000000000530000
#0423b1:0000000000130000
#042371:00000023
#043371:00000013000000002300000000000000
#0433b1:0000000000000000000000530000000000000000000000000000000000000000
#043320:00000013000000002300000000000000
#043360:0000000000000000000000530000000000000000000000000000000000000000
#044380:00130000
#0443b0:0023
#045320:00000000000000130000000000000000
#045370:0000000000230000
#045361:00000000000000130000000000000000
#0453b1:0000000000230000
#0463b1:00000000000000130000000023000000
#046371:0000000000530000
#046320:0000000000130000
#046360:00000023
#047360:00000013000000002300000000000000
#047320:0000000000000000000000530000000000000000000000000000000000000000
#0473b1:00000013000000002300000000000000
#047371:0000000000000000000000530000000000000000000000000000000000000000
#0483b1:00130023000000000000000000000000
#0483b1:00000000000000000013002300000000
#048361:0000000000000013
#049321:23
#049370:13
#0493b0:0023000000000000
#049320:00000000132300000000000000000000
#0493b0:00000000000000130000000000000000
#049370:0000000000230000
#049390:00000000000000000000001323000000
#049390:00000000000000000000000000132300
#049390:00000000000000000000000000000013
#050390:23
#050320:00130000
#050350:00000000002300000000000000000000
#050320:00000000000000130000000023000000
#050360:0000000000530000
#050371:00000000000000130000000000000000
#0503b1:0000000000230000
#051370:00000013000000002300000000000000
#0513b0:0000000000000000000000530000000000000000000000000000000000000000
#051321:00000013000000002300000000000000
#051361:0000000000000000000000530000000000000000000000000000000000000000
#052321:00130023000000000000000000000000
#052321:00000000000000000013002300000000
#052371:0000000000000013
#0533b1:23
#053360:13
#053320:0023000000000000
#0533b0:00000000132300000000000000000000
#055320:00000000000000130000000000000000
#055360:0000000000230000
#0553b1:0000000000130023
#055371:00000033
#056321:14
#056381:00005454545454545454545454545400
#056341:0000000000540054005400540054005400540054005400540054005400000000
#057321:24
#0563a0:14
#056340:00005454545454545454545454545400
#056380:0000000000540054005400540054005400540054005400540054005400000000
#0573a0:24
#057320:00000000000000000000001323000000
#0573b0:00000000000000000000000000132300
#057320:00000000000000000000000000000013
#058320:23
#058320:00000000001300000000000000000000
#058360:00000000000000230000000000000000
#0593b0:00000000000000000000001323000000
#059320:00000000000000000000000000132300
#0593b0:00000000000000000000000000000013
#0603b0:23
#060370:00000000001300000000000000000000
#0603b0:00000000000000230000000000000000
#0613b0:00001323000000000000000000000000
#061320:00000000132300000000000000000000
#0613b0:00000000000013230000000000000000
#062320:00000000001300000000000000000000
#062360:00000000000000230000000000000000
#063320:0000132300000000
#0633b0:0000000013230000
#063320:0000000000001323
