This file was generated by Ched 2.6.2.0.
#TITLE ""
#ARTIST ""
#DESIGNER ""
#DIFFICULTY 0
#PLAYLEVEL
#SONGID ""
#WAVE ""
#WAVEOFFSET 0
#JACKET ""
#REQUEST "ticks_per_beat 480"
#00002: 4
#BPM01: 127
#00008: 01
#TIL00: ""
#HISPEED 00
#MEASUREHS 00
#0001a:14141414
#00114:14141400
#00218:14141414
#0161a:1414
#01614:00140014
#01718:1414
#01712:00140014
#0081a:14140000
#00818:00001414
#00814:0000000000140000
#00810:41
#0121a:14
#01214:00140000
#01218:00001414
#01212:0000000000140000
#04018:2414140000000000
#04012:2414140000000000
#0401a:0000000024141400
#04014:0000000024141400
#0401f:21
#0381a:14
#03812:00140000
#03818:0014
#03814:0000000000000034
#04112:14141400
#04118:0014001400000000
#04110:41
#00718:14140000
#0071a:0014
#00712:0014
#06212:1414
#0621a:1414
#06218:00140000
#06214:00000014
#05812:14
#05818:0000140000140000
#0581a:14
#05814:00001414
#05810:41
#06314:0014001400140014
#06318:14141414
#0041a:14140000
#00414:00001414
#00518:14140000
#00512:0014
#0061a:14140000
#00614:00001414
#00912:14140000
#0181a:14
#01818:00140000
#01814:0014
#01812:00000014
#0241a:14140000
#02412:14
#02512:14140000
#0251a:14
#0261a:14140000
#02612:14
#02812:14
#02814:00140000
#0281a:14
#0341a:14
#03418:00140000
#03414:00000014
#03512:14
#03514:00140000
#03518:00000014
#03212:00000014
#0321f:11
#0331a:00000014
#03618:14000014
#0361a:00140000
#03714:14000014
#03712:00140000
#04318:14
#0451a:14141400
#04514:0014001400000000
#04713:00000014
#04719:00000014
#04714:14
#04912:14
#04919:0000001400000000
#04918:0014000000000000
#04913:00140000
#04914:0014
#0511a:14
#05119:00000014
#05113:00000014
#05118:00140000
#05018:14
#05014:0014
#05513:00000014
#05519:00000014
#05512:14
#05514:00140000
#0601a:14
#06014:0000140000140000
#06012:14
#06018:00001414
#06112:14
#0611a:0014
#02012:1414
#02018:00140014
#02114:1414
#0211a:00140014
#02212:14
#02214:00140000
#02218:0014
#0221a:00000014
#05212:00142400
#05218:00142400
#05213:0014000000140000
#05219:0014000000140000
#0521a:24000014
#05214:24000014
#05210:41
#0531a:14
#05313:0000001400000000
#05314:0014000000000000
#05319:00140000
#05318:0014
#0291a:14
#02918:00140000
#02912:14
#03012:14
#03014:00140000
#0301a:14
#0591a:14
#05912:0014
#0571a:00000014
#05712:00000014
#04414:2414140000000000
#0441a:2414140000000000
#04412:0000000024141400
#04418:0000000024141400
#0481a:00142400
#04814:00142400
#04819:0014000000140000
#04813:0014000000140000
#04812:24000014
#04818:24000014
#01012:14140000
#01014:00001414
#01018:0000000000140000
#0111a:14140000
#01318:00140000
#01312:14
#01412:14
#01418:00140000
#01414:00001414
#0141a:0000000000140000
#01514:00140000
#0151a:14
#01510:41
#0191a:14140000
#01914:0014000000000000
#01912:00001414
#01918:0000000000140000
#02312:14140000
#02318:0014000000000000
#0231a:00001414
#02314:0000000000140000
#0271a:14
#02714:0014000000001400
#02718:0000140000140000
#02712:0014
#02710:41
#03112:14
#03118:0014000000001400
#03114:0000140000140000
#0311a:0014
#05414:14
#05418:0014
#05619:24
#05613:24
#0075a:0014
#00752:0014
#06354:0000000000000014
#06358:00000014
#03458:00240000
#0345a:64
#03552:54
#03554:00240000
#03658:54
#0365a:00240000
#04358:54
#0515a:54
#05158:00240000
#05058:64
#05054:0054
#06152:64
#0615a:0064
#03754:64
#03752:00240000
#0595a:54
#05952:0054
#04152:0014
#0455a:0014
#04954:0014
#05358:0014
#04754:64
#05552:64
#05554:00240000
#05454:54
#05458:0064
#003320:14342400
#009320:00001424
#0113a0:00001424
#013340:00001424
#015380:00001424
#024340:00001424
#025380:00001424
#026340:00001424
#028380:00001424
#029340:00001424
#030380:00001424
#0323a0:1424
#032380:00540000
#033320:1424
#033340:00540000
#0343a0:1424
#034380:00540000
#035320:1424
#035340:00540000
#036380:1424
#0363a0:00540000
#037340:1424
#037320:00540000
#038340:0000000000001434
#039320:28
#042380:14
#0423a0:00240000
#042340:0014
#042320:00000024
#043380:14
#0433a0:0024
#046340:14
#046320:00240000
#046380:0014
#0463a0:00000024
#047340:14
#047320:0024
#050380:14
#0503a0:00240000
#050340:0014
#050320:00000024
#0513a0:1424
#051380:00540000
#054340:14
#054320:00240000
#054380:0014
#0543a0:00000024
#055320:1424
#055340:00540000
#056390:1434
#057390:24
#056331:1434
#057331:24
#0593a1:14
#059381:00240000
#059321:0014
#059341:00000024
#061321:14
#061341:00240000
#0613a1:0014
#061381:00000024
