This file was generated by Ched 2.6.4.0.
#TITLE ""
#ARTIST ""
#DESIGNER ""
#DIFFICULTY 0
#PLAYLEVEL
#SONGID ""
#WAVE ""
#WAVEOFFSET 0
#JACKET ""
#REQUEST "ticks_per_beat 480"
#00002: 4
#BPM01: 140
#00008: 01
#TIL00: ""
#HISPEED 00
#MEASUREHS 00
#00119:14
#00219:14
#00313:14
#00310:41
#00413:14
#04318:2616
#0431f:21
#04310:0041
#04412:1616
#04518:16
#04512:0016
#04618:16
#04612:0016
#05112:2616
#05218:1616
#05312:16
#05318:0016
#05412:16
#05418:0016
#0591a:14
#05910:41
#06014:14
#06118:14
#06212:14
#0631a:14
#06414:14
#06518:14
#01818:14
#03818:14
#03914:14
#04018:14
#01914:14
#02018:14
#02010:41
#02114:14
#0221a:14
#02312:14
#0241a:14
#02512:14
#03312:14
#0321a:14
#0291a:14
#02812:14
#0101a:14
#01010:41
#0111a:14
#01214:14
#01314:14
#01418:14
#01518:14
#01612:14
#01712:14
#0341f:11
#03010:41
#005380:14
#006380:24
#007340:1400000000000034
#009340:24
#026380:14
#027380:24
#030340:14
#031340:24
#0343a0:14
#0353a0:24
#036320:14
#037320:24
#041340:14
#042340:24
#047380:1626
#048320:1626
#049380:16
#050380:26
#055320:1626
#056380:1626
#057320:16
#058320:26
#066320:14000024
