This file was generated by Ched 2.6.4.0.
#TITLE ""
#ARTIST ""
#DESIGNER ""
#DIFFICULTY 0
#PLAYLEVEL
#SONGID ""
#WAVE ""
#WAVEOFFSET 0
#JACKET ""
#REQUEST "ticks_per_beat 480"
#00002: 4
#BPM01: 140
#00008: 01
#TIL00: ""
#HISPEED 00
#MEASUREHS 00
#00116:0012000012000000
#00118:0000120000000012
#00112:00000000120000000000001200001300
#00114:1200001200000000
#0011b:0013
#0011a:1200001200000000
#0011c:0012000000000000
#00313:12
#00318:1212000000000000
#00316:0000121200000012
#0031b:0000120000000013
#00310:41
#0041c:00120000
#00412:0012001200000000
#0041b:0013
#00416:00121300
#00418:00000000000012000000000000000013
#00415:0000000000000013
#01016:13
#01017:00001313
#01012:0000000000001313
#01010:41
#02012:1300000000000013
#02016:0013000000000000
#0201b:00131300
#02017:0000001300000000
#02018:0000000000130000
#02015:00000013
#02010:41
#02317:00130013
#02319:0000001300000000
#02312:13130013
#0231b:1313
#02314:0000001300000000
#02316:0013
#0341b:1313
#03418:0013130000000013
#03412:00130013
#03415:1300001300000013
#03416:0013
#03414:0000000000130000
#03419:0000000000130000
#03417:00000013
#0341f:11
#0351b:0000130000130000
#03517:0000001300000013
#03516:0000130000130000
#03512:0000001300000013
#03519:00000013
#03514:00000013
#04512:0000000013000000130000000000000000000013000000000000000023000000
#04518:00000000001300000000000000000000
#04515:0000001300000000
#0451b:00000000000000130000001300000000
#04517:0013000000000023
#04516:00000000000000001300001300000000
#04718:00001300130000000000001300130000
#04715:00000013001300000000130013000000
#0471b:0000001300000013
#04712:0000001300000013
#0481b:0013000013000000
#04816:00000013000000000000130014000000
#04817:0000001300000013
#0481a:0000000000140000
#04819:00130000
#04814:00000000001300000000000000000000
#04812:00000000000000130000000000002400
#04917:0000000000130000
#04916:0000140000001413
#0491a:0000000000000024
#0531b:00001300130000000000001300000000
#05316:00000013000000000000130000000000
#05317:00000000000000130000000000001300
#05312:00000000000013000000000000130000
#05314:0013
#05319:00000000000000000013000000000000
#05416:0013001300001300
#05412:0000130000000013
#05417:0000130000130013
#0541b:0000001300001300
#05712:00001300000000130000000000000000
#05715:00130000
#05717:0000001313000000
#05714:0000000000130000
#0571b:0000130000000013
#05718:0013000000000000
#05816:0000000000130000
#05814:00000013
#05812:0000000000000013
#05817:0000130000000013
#05819:00000013
#0021c:0012120012000000
#00216:00121300
#00218:00000000000012000000001200000000
#00212:0000001200000000
#01812:0013001300001300
#01815:13130000
#01818:1313
#0181b:0013001300000000
#01918:13130000
#01915:13
#01912:0013
#02416:13130013
#02414:0000001300000000
#0241b:00130013
#02412:0013
#02419:0000001300000000
#02417:0013
#03612:1313000013000013
#0361b:0000131300001300
#03615:00130000
#03618:1300000000000013
#03617:0013
#03614:0000000000130000
#03619:0000000000130000
#03616:00000013
#05016:00000000001400000000000013000000
#05516:0013130000000023
#0551b:0000000000001300000000000000000000000013000000000000000023000000
#05517:0000000000000000000000001300000013000000000000000013000000000000
#05512:0000000000000000000000000000130000000000000000000013000000000000
#05519:00000000000000000000001300000000
#05514:00000000000000000000001300000000
#01116:0013000000000000
#0111b:0013000000000000
#01712:00131300
#01717:00130000
#0171b:0000001300000000
#01716:0013001300000000
#01718:0013
#05912:1313
#05917:13
#0591b:0000130000001313
#05916:00000013
#05910:41
#06316:13000013
#06319:13
#06312:0013001300000000
#06318:00130000
#0631b:0013001300001313
#06314:0013
#06615:0000131316000000
#06618:0013000000000000
#00016:00000000000000000000000000000012
#00018:0000000000000012
#02717:0013001300000000
#0271b:00130000
#02712:0013000000130000
#02716:0000130000000013
#02714:00000013
#04016:2313
#04012:0000000000130013
#0401b:23130013
#04017:0000001300000013
#0411b:13130000
#04117:0013001300000000
#04116:13130000
#04112:0013000000000000
#02616:0000000013001313
#0261b:0000000000000013
#02612:13240000
#0261a:00240000
#03812:00000013000000000000130000000000
#03817:00000013000000000000130000000000
#03819:00000013
#0381b:1300000000000013
#03816:1300000000000013
#03814:00000013
#04317:00000013000000000000000000000000
#04312:0000000023000000130000000000000000000000000000000013000000000000
#0431b:23000000000013001300001300002300
#04316:23000000000000130000000000000000
#04315:00000000000000000000001300002300
#04318:0000000000000000000000000000000000000013000000000013000000000000
#0431f:21
#04310:0041
#0441b:0000000013000000130000000000000000000000000000000013000000000000
#04416:00000013000000000000000000000000
#04412:00000000000013001300001300002300
#04417:00000000000000130000000000000000
#04418:00000000000000000000001300002300
#04415:0000000000000000000000000000000000000013000000000013000000000000
#0461b:0013130013130023
#04615:00000000001300130000000000000000
#04618:0000001300000000
#04612:00000013000000001300000013000000
#04617:00000013
#04616:0000000000130023
#05112:00001300000000000000001300002300
#05118:00000013000000001300001300002300
#05115:0000000000000000130000000000130000000000000000000013000000000000
#0511b:0000000000000000000000001300000000000013000000000013000000000000
#0521b:00001300000000000000001300002300
#05215:00000013000000001300001300002300
#05218:0000000000000000130000000000130000000000000000000013000000000000
#05212:0000000000000000000000001300000000000013000000000013000000000000
#06017:0013000000000000
#06012:0013000000000000
#06412:0013000000001313
#06417:0013000000001313
#0641b:0000001300000000
#06416:0000001300000000
#01412:0013000000001313
#01417:00001313
#01416:13
#0141b:0000001300000000
#01516:0013000000001300
#0151b:0013000000001300
#01512:0000001300000000
#01517:0000001300000000
#0391b:00000013000000000000130000000000
#03916:00000013000000000000130000000000
#03912:1300000000000013
#03917:1300000000000013
#03919:00000013
#03914:00000013
#0091b:13130000
#00915:00130000001300001600000000000000
#00918:0013001300000000
#00912:00000013000000130000000000000000
#0051b:13131313
#00616:0013000000000000
#00612:00130000
#00615:0000001300000000
#00617:0013
#0061a:0000000000130000
#00618:00000013
#0061b:1300000000000013
#0071b:13
#00715:0000000000000013
#00712:13
#00818:0013001300000000
#0081b:00130000
#0121b:0000000000001313
#01216:00001313
#01217:13
#01317:0013000000000000
#01312:0013000000000000
#0161b:13
#01616:13
#01617:0000000000000013
#02212:13
#02215:0013001300000000
#0221b:0013
#02218:0000000000130013
#0251b:0000131313000000
#02512:0013000013000000
#02517:00000013
#0281a:14141414
#02812:0000000000140014
#02816:0014001414141414
#0291b:0013000000000000
#02916:0013000000000000
#02914:00130000
#02919:00130000
#02912:0000001300000000
#02917:0000001300000000
#03119:00000013
#03117:0000130000000013
#03116:0013001300000000
#03112:00130000
#0311b:0013000000130000
#03215:1300001300001300
#0321b:1313
#03218:0000130000130000
#03212:0000000013000013
#03312:0013000000000000
#03317:0013000000000000
#03319:00130000
#03314:00130000
#0331b:1300001300000000
#03316:0000001300000000
#05617:0013130000000023
#05612:0000000000001300000000000000000000000013000000000000000023000000
#05616:0000000000000000000000001300000013000000000000000013000000000000
#0561b:0000000000000000000000000000130000000000000000000013000000000000
#05614:00000000000000000000001300000000
#05619:00000000000000000000001300000000
#0611b:1313
#06116:13
#06112:0000130000001313
#06117:00000013
#06216:0013000000000000
#0621b:0013000000000000
#06516:0000000000000013
#04216:0013
#04212:0013000000130000
#04215:00130000
#04218:0000001300000000
#0421b:0013
#04217:0000000000130000
#02118:13
#02112:13
#02115:0013
#0211b:0013
#03017:0000000013001313
#03012:0000000000000013
#0301b:00130000
#03016:00130000
#03010:41
#03715:00130000
#0371b:00130000
#0015b:0053
#00152:0000000000000053
#00256:0053
#0035b:0000000000000063
#0045b:0053
#00456:0053
#00452:00000000000000000000001300000000
#00457:00000000000000000000001300000000
#0185b:0023000000001300
#01852:0000002300001300
#01858:5353
#01855:00530000
#01958:13530000
#01952:00131300
#01955:63
#0195b:0013
#0235b:0053
#02357:00000023
#02452:0063
#02456:00000053
#03557:0000001300000000
#03552:0000001300000000
#0455b:00000000000000000000005300000000
#04556:00000000000000005300005300000000
#04552:0000000000000000000000000000000000000023000000000000000013000000
#04557:0000000000000013
#04956:00240000
#0495a:0000000000000054
#05056:00000000002400000000000000000000
#0575b:0000000000000053
#05857:00230000
#05856:0000000000130000
#05859:00000013
#05852:0000000000000013
#01052:0000000000000053
#01057:00000053
#01156:0053000000000000
#0115b:0053000000000000
#05952:63
#0595b:0000530000000063
#05956:00000063
#06356:63000063
#06352:0023000000000000
#06358:00530000
#0635b:0000002300000063
#02757:0063006300000000
#0275b:00230000
#02752:0063000000000000
#02756:00230000
#04057:0000000000000063
#04052:0000000000000053
#0415b:23230000
#04157:0063005300000000
#04152:0053000000000000
#04156:23230000
#02656:0000000000000063
#04355:00000000000000000000006300004300
#0435b:13000000000000006300006300004300
#04358:0000000000000000000000000000000000000023000000000023000000000000
#04352:0000000000000000000000000000000000000000000000000023000000000000
#04356:13
#04652:00000063
#04657:00000053
#04656:0000000000000013
#0465b:0000000000000013
#05158:00000000000000005300005300003300
#0515b:0000000000000000000000000000000000000023000000000023000000000000
#05152:00000000000000000000005300003300
#05155:0000000000000000000000000000000000000000000000000023000000000000
#05557:0000000000000000000000000000000053000000000000000023000000000000
#0555b:0000000000000000000000000000000000000023000000000000000043000000
#05559:00000000000000000000005300000000
#05554:00000000000000000000005300000000
#05552:0000000000000000000000000000000000000000000000000023000000000000
#05556:0000000000000043
#06057:0063000000000000
#06052:0063000000000000
#06452:0063000000000063
#06457:0063000000000063
#0645b:0000002300000000
#06456:0000002300000000
#04852:0000000000000054
#03458:0000000000000023
#03455:0000000000000023
#01452:0000000000000053
#01457:00000053
#01556:0053000000000000
#0155b:0053000000000000
#01552:0000002300000000
#01557:0000002300000000
#05357:0000000000000053
#05456:0000005300000000
#05452:0000000000000013
#05457:0000000000000013
#00955:0026
#00952:00000000000000000000001c00000000
#06655:0056
#06657:00000000000000000000001200000000
#0075b:53
#00755:0000000000000053
#0125b:0000000000000063
#01256:00000063
#01357:0063000000000000
#01352:0063000000000000
#0165b:53
#01656:53
#01657:0000000000000053
#01752:0063
#01758:0063
#01755:00000000000000000000001300000000
#0175b:00000000000000000000001300000000
#0255b:0053
#02557:00000023
#0285a:54545454
#02852:0000000000240024
#02856:0024002454245424
#02952:0000005300000000
#02957:0000005300000000
#03255:53
#0335b:0000006300000000
#03356:0000006300000000
#05656:0000000000000000000000000000000063000000000000000023000000000000
#05652:0000000000000000000000000000000000000023000000000000000033000000
#05654:00000000000000000000006300000000
#05659:00000000000000000000006300000000
#0565b:0000000000000000000000000000000000000000000000000023000000000000
#05657:0000000000000033
#0615b:53
#06152:0000630000000053
#06157:00000053
#06256:0053000000000000
#0625b:0053000000000000
#06556:0000000000000053
#0385b:5300001300000000
#03856:53
#03852:00000053000000000000000000000000
#03857:00000053000000000000000000000000
#03952:6300001300000000
#03957:63
#03956:00000063000000000000000000000000
#0395b:00000063000000000000000000000000
#04458:00000000000000000000005300003300
#04452:00000000000000005300005300003300
#04455:0000000000000000000000000000000000000023000000000023000000000000
#0445b:0000000000000000000000000000000000000000000000000023000000000000
#05255:00000000000000006300006300004300
#05252:0000000000000000000000000000000000000023000000000023000000000000
#0525b:00000000000000000000006300004300
#05258:0000000000000000000000000000000000000000000000000023000000000000
#04256:0053
#04252:0000000000230000
#0425b:0053
#04257:0000000000230000
#02158:53
#02152:53
#02155:0063
#0215b:0063
#03156:0053005300000000
#03152:00230000
#0315b:0053000000000000
#03157:00230000
#03057:0000000000000053
#03652:0000000000000053
#03658:0000000000000053
#03755:00630000
#0375b:00630000
#03752:0000001300000000
#03758:0000001300000000
#0013b0:0013
#001370:00000000000000000000002300000000
#001320:0000000000000013
#002360:0023000000000000
#002360:0013
#002320:00000000000000000000002300000000
#003370:00000000000000001300002300000000
#0033a0:00000000000000000033330000000000
#003321:00000000000000001300002300000000
#003351:00000000000000000033330000000000
#0033b1:0000000000000013
#004371:0023000000000000
#004361:0013
#004321:00000000000000000000002300000000
#0043b0:0013
#004370:00000000000000000000002300000000
#005360:13530000000000000000000000000053
#005350:0053000053005300000000000000000000000000000000000000530053000053
#005340:0000005300530000530053000000000000000000000053005300005300530000
#005330:0000000000000053005300005300530053005300530000530053000000000000
#005320:0000000000000000000000530053005300530053005300000000000000000000
#006360:23
#0063b0:0013000000000000
#006370:00330000
#0063a0:0000002300000000
#006320:0013
#006350:0000000000330000
#006330:00000033
#006360:0000000000000023
#0073b0:13
#007380:0000000033333323
#0073a0:00000000000000000033003300330000
#007351:0000000000000013
#008321:00000000000000000000002300000000
#0083b0:00000000000000001300002300000000
#009350:0016
#009320:00000000000000000000002c00000000
#0103b0:13
#010390:00230000
#010341:00130000
#010321:0023
#010371:00000013
#0113b1:5333000000000000
#011371:00000023
#010320:0000000000000013
#011360:0033000000000000
#011320:00000023
#012320:13
#012340:00230000
#012391:00130000
#0123b1:0023
#012361:00000013
#013321:5333000000000000
#013361:00000023
#0123b0:0000000000000013
#013370:0033000000000000
#0133b0:00000023
#0143b0:13
#014390:00230000
#014341:00130000
#014321:0023
#014371:00000013
#0153b1:5333000000230000
#015371:0000005300000000
#014320:0000000000000013
#015360:0033000000230000
#015320:0000005300000000
#0153b0:0000000000000013
#0163b0:33
#016370:0000000033333333
#016390:00000000000000000033003300330000
#0173b0:0023000000000000
#015361:0000000000000013
#016361:33
#016321:0000000033333323
#016341:00000000000000000033003300330000
#017320:0013
#017350:00000000000000000000002300000000
#017381:0013
#0173b1:00000000000000000000002300000000
#018381:13230000
#0183b1:0053000000000000
#018350:00132300
#018320:0000005300000000
#018381:0013
#0183b1:00000023
#019351:13
#019321:00230000
#019380:00130000
#0193b0:0023
#0203b0:1323000000000000
#020320:0000132300000000
#021380:13
#0213b0:0000332300000000
#021321:13
#021351:0000332300000000
#021351:0013
#021321:00000023
#0213b0:0013
#021380:00000023
#022380:0000132300000000
#022350:0000000000001323
#0233b0:0013
#023370:00000053
#0243b0:23
#024320:0013
#024360:00000033
#025320:23
#025371:1323000000000000
#025361:0000132300000000
#0253b1:0013
#025371:00000053
#0263b1:23
#0263b1:00001323
#026361:0000000000000013
#027321:0033002300000000
#027361:00530000
#027370:0013003300000000
#0273b0:0000530000230000
#0283a0:14343434
#028360:0054005400540054
#0293a0:24
#028361:00001434
#028321:0000000000540054
#029361:24
#029371:0000001300000000
#0303b1:23
#029320:0000001300000000
#030360:23
#030320:00001323
#030370:0000000000000013
#0313b0:0033002300000000
#031370:00530000
#031361:0013003300000000
#031321:0000530000230000
#032351:13
#032321:00230000
#033361:0000001300000000
#033321:00000023
#0333b0:0000001300000000
#033370:00000023
#034350:0000000000000013
#035320:0023000000000000
#034381:0000000000000013
#0353b1:0023000000000000
#036321:0000000000000013
#037351:33330000
#037321:0000002300000000
#036380:0000000000000013
#0373b0:33330000
#037380:0000002300000000
#0383b0:1300002300000000
#038370:00000033000000000000000000000000
#038361:1300002300000000
#038321:00000033000000000000000000000000
#039321:1300002300000000
#039361:00000033000000000000000000000000
#039370:1300002300000000
#0393b0:00000033000000000000000000000000
#040360:00130000
#040320:0000002300000000
#0403b0:0013
#040370:0000000000230000
#040360:00000013
#040320:0000000000000033
#041360:53530000
#041320:0033003300000000
#042320:23
#040371:0000000000000013
#0413b1:53530053
#041371:0033003300000000
#0423b1:23
#042361:0000000013003333
#042321:0000000000530000
#042341:00000000000000000000000000330033
#043361:23
#0423b0:0000000013003333
#042370:0000000000530000
#042390:00000000000000000000000000330033
#0433b0:23
#0433b0:00000000000000001300003300002300
#043380:0000000000000000000000000000000000000053000000000053000000000000
#043351:00000000000000000000001300002300
#043321:0000000000000000000000000000000000000000000000000053000000000000
#044321:00000000000000001300003300002300
#044351:0000000000000000000000000000000000000053000000000053000000000000
#044380:00000000000000000000001300002300
#0443b0:0000000000000000000000000000000000000000000000000053000000000000
#045360:00000000000000001300003300000000
#045320:0000000000000000000000000000000000000053000000000000000023000000
#0453b1:00000000000000000000001300000000
#045371:0000000000000023
#046321:00000013
#046361:0000000000000023
#046370:00000013
#0463b0:0000000000000023
#048320:0000000000000014
#049360:00540000
#049320:0000000000240000
#0493a0:0000000000000014
#050360:00000000005400000000000000000000
#0503a0:00000024
#051380:00000000000000001300003300002300
#0513b0:0000000000000000000000000000000000000053000000000053000000000000
#051321:00000000000000000000001300002300
#051351:0000000000000000000000000000000000000000000000000053000000000000
#052351:00000000000000001300003300002300
#052321:0000000000000000000000000000000000000053000000000053000000000000
#0523b0:00000000000000000000001300002300
#052380:0000000000000000000000000000000000000000000000000053000000000000
#053370:0000000000000013
#0543b0:0023000000000000
#054360:0000001300000000
#054320:0000000000230000
#055370:0000000000000000000000000000000013000000000000000053000000000000
#0553b0:0000000000000000000000000000000000000053000000000000000023000000
#055390:00000000000000000000005300000000
#055341:00000000000000000000001300000000
#055321:0000000000000000000000000000000000000000000000000053000000000000
#055361:0000000000000023
#056361:0000000000000000000000000000000013000000000000000053000000000000
#056321:0000000000000000000000000000000000000053000000000000000023000000
#056341:00000000000000000000005300000000
#056390:00000000000000000000001300000000
#0563b0:0000000000000000000000000000000000000000000000000053000000000000
#056370:0000000000000023
#057370:0000000000130000
#0573b0:00000023
#057321:00000013
#057361:0000000000000023
#0573b0:0000000000000013
#058370:00530000
#0583b0:0000000000230000
#059320:13
#059360:0053230000000000
#0593b1:00130000
#059371:0000005323000000
#059361:00000013
#060321:5333000000000000
#060361:00000023
#0593b0:0000000000000013
#060370:0033000000000000
#0603b0:00000023
#0613b0:13
#061370:0053230000000000
#061321:00130000
#061361:0000005323000000
#061371:00000013
#0623b1:5333000000000000
#062371:00000023
#061320:0000000000000013
#062360:0033000000000000
#062320:00000023
#063360:13
#063320:0053000000000000
#063350:00230000
#063381:00130000
#0633b1:0000005300000000
#063371:0023
#063361:00000013
#064321:5333000000230000
#064361:0000005300000000
#0633b0:0000000000000013
#064370:0033000000230000
#0643b0:0000005300000000
#064320:0000000000000013
#065360:0000000033333333
#065340:00000000000000000033003300330000
#066320:0023000000000000
#064371:0000000000000013
#0653b1:0000000033333323
#065391:00000000000000000033003300330000
#0663b0:0000132300000000
#066350:0016
#066370:00000000000000000000002200000000
